<?xml version="1.0" standalone="no"?>
<!DOCTYPE svg PUBLIC "-//W3C//DTD SVG 1.1//EN" "http://www.w3.org/Graphics/SVG/1.1/DTD/svg11.dtd" >
<svg xmlns="http://www.w3.org/2000/svg">
<metadata></metadata>
<defs>
<font id="dejavu_sans_monobold" horiz-adv-x="1233" >
<font-face units-per-em="2048" ascent="1556" descent="-492" />
<missing-glyph horiz-adv-x="500" />
<glyph unicode="&#xfedf;&#xfe82;" arabic-form="isolated" d="M0 0zM1107 834q0 -314 -128 -518q-59 -95 -140 -172q-174 -164 -419 -164q-106 0 -181 32v243q96 -32 181 -32q114 0 186 80l-498 1107h284l379 -837q47 103 47 297v686h289v-722zM-138 1688l192 113q62 -61 186 -99q42 -13 96 -13q51 0 100 16q132 41 210 117v-200 q-58 -48 -196 -93q-66 -22 -120 -22q-16 0 -110 17q-102 17 -160 82l-198 -118v200z" />
<glyph unicode="&#xfee0;&#xfe82;" arabic-form="final" d="M0 0zM872 177q-175 -192 -452 -197q-106 0 -181 32v243q96 -32 181 -32q114 0 186 80l-498 1107h284l379 -837q47 103 47 297v686h289v-722q0 -274 -97 -464q61 -145 138 -145h105v-225h-129q-171 0 -252 177zM-148 1688l192 113q62 -61 186 -99q42 -13 96 -13 q51 0 100 16q132 41 210 117v-200q-58 -48 -196 -93q-66 -22 -120 -22q-16 0 -110 17q-102 17 -160 82l-198 -118v200z" />
<glyph unicode="&#xfedf;&#xfe84;" arabic-form="isolated" d="M0 0zM1107 834q0 -314 -128 -518q-59 -95 -140 -172q-174 -164 -419 -164q-106 0 -181 32v243q96 -32 181 -32q114 0 186 80l-498 1107h284l379 -837q47 103 47 297v686h289v-722zM-17 1474zM-7 1474v124l84 28q-32 17 -60 53q-34 47 -34 98q0 68 20 104q29 55 65 70 q67 28 120 28q72 0 136 -31v-121q-60 29 -130 29q-27 0 -43 -14q-23 -21 -23 -63q0 -60 90 -107l126 31v-129z" />
<glyph unicode="&#xfee0;&#xfe84;" arabic-form="final" d="M0 0zM872 177q-175 -192 -452 -197q-106 0 -181 32v243q96 -32 181 -32q114 0 186 80l-498 1107h284l379 -837q47 103 47 297v686h289v-722q0 -274 -97 -464q61 -145 138 -145h105v-225h-129q-171 0 -252 177zM-44 1474zM-34 1474v124l84 28q-32 17 -60 53q-34 47 -34 98 q0 68 20 104q29 55 65 70q67 28 120 28q72 0 136 -31v-121q-60 29 -130 29q-27 0 -43 -14q-23 -21 -23 -63q0 -60 90 -107l126 31v-129z" />
<glyph unicode="&#xfedf;&#xfe88;" arabic-form="isolated" d="M108 0zM1107 834q0 -314 -128 -518q-59 -95 -140 -172q-174 -164 -419 -164q-106 0 -181 32v243q96 -32 181 -32q114 0 186 80l-498 1107h284l379 -837q47 103 47 297v686h289v-722zM121 -151zM131 -656v124l84 28q-32 17 -60 53q-34 47 -34 98q0 68 20 104q29 55 65 70 q67 28 120 28q72 0 136 -31v-121q-60 29 -130 29q-27 0 -43 -14q-23 -21 -23 -63q0 -60 90 -107l126 31v-129z" />
<glyph unicode="&#xfee0;&#xfe88;" arabic-form="final" d="M108 0zM872 177q-175 -192 -452 -197q-106 0 -181 32v243q96 -32 181 -32q114 0 186 80l-498 1107h284l379 -837q47 103 47 297v686h289v-722q0 -274 -97 -464q61 -145 138 -145h105v-225h-129q-171 0 -252 177zM121 -178zM131 -683v124l84 28q-32 17 -60 53 q-34 47 -34 98q0 68 20 104q29 55 65 70q67 28 120 28q72 0 136 -31v-121q-60 29 -130 29q-27 0 -43 -14q-23 -21 -23 -63q0 -60 90 -107l126 31v-129z" />
<glyph unicode="&#xfedf;&#xfe8e;" arabic-form="isolated" d="M1107 834q0 -314 -128 -518q-59 -95 -140 -172q-174 -164 -419 -164q-106 0 -181 32v243q96 -32 181 -32q114 0 186 80l-498 1107h284l379 -837q47 103 47 297v686h289v-722z" />
<glyph unicode="&#xfee0;&#xfe8e;" arabic-form="final" d="M872 177q-175 -192 -452 -197q-106 0 -181 32v243q96 -32 181 -32q114 0 186 80l-498 1107h284l379 -837q47 103 47 297v686h289v-722q0 -274 -97 -464q61 -145 138 -145h105v-225h-129q-171 0 -252 177z" />
<glyph unicode="&#x67b;" arabic-form="isolated" d="M1208 539q14 -90 14 -203q0 -141 -182 -284q-112 -88 -437 -88q-243 0 -399 52q-177 59 -177 304q0 84 25 186h276q-27 -110 -27 -186q0 -72 103 -120q51 -24 194 -24q124 0 234 68q117 73 117 160t-17 135h276zM498 -692v225h225v-225h-225zM498 -342v225h225v-225h-225 z" />
<glyph unicode="&#x67b;" arabic-form="final" d="M69 0zM452 -692v225h225v-225h-225zM452 -342v225h225v-225h-225zM603 -20q-216 0 -333 41q-201 70 -201 299q0 100 29 186h282q-28 -80 -28 -166q0 -64 103 -109q38 -16 138 -16q50 0 127 23q85 24 122 62q42 42 42 123q0 86 -16 117h266q19 -75 19 -165q0 -59 24 -110 q19 -40 43 -40h33v-225h-75q-65 0 -100 27q-55 46 -62 78q-36 -39 -153 -82t-260 -43z" />
<glyph unicode="&#x67b;" arabic-form="initial" d="M0 0zM472 -664v225h225v-225h-225zM472 -314v225h225v-225h-225zM658 86q-72 -86 -465 -86h-229v225h174q235 0 279 44q49 49 49 155v176h284v-176q0 -228 -92 -338z" />
<glyph unicode="&#x67b;" arabic-form="medial" d="M0 0zM484 -636v225h225v-225h-225zM484 -286v225h225v-225h-225zM606 72q-64 -72 -291 -72h-347v225h240q161 0 205 44q49 49 49 155v217h290v-217q0 -106 49 -155q44 -44 207 -44h257v-225h-365q-227 0 -294 72z" />
<glyph unicode="&#x67e;" arabic-form="isolated" d="M1208 539q14 -90 14 -203q0 -141 -182 -284q-112 -88 -437 -88q-243 0 -399 52q-177 59 -177 304q0 84 25 186h276q-27 -110 -27 -186q0 -72 103 -120q51 -24 194 -24q124 0 234 68q117 73 117 160t-17 135h276zM528 -692v225h225v-225h-225zM703 -342v225h225v-225h-225 zM353 -342v225h225v-225h-225z" />
<glyph unicode="&#x67e;" arabic-form="final" d="M69 0zM499 -692v225h225v-225h-225zM674 -342v225h225v-225h-225zM324 -342v225h225v-225h-225zM603 -20q-216 0 -333 41q-201 70 -201 299q0 100 29 186h282q-28 -80 -28 -166q0 -64 103 -109q38 -16 138 -16q50 0 127 23q85 24 122 62q42 42 42 123q0 86 -16 117h266 q19 -75 19 -165q0 -59 24 -110q19 -40 43 -40h33v-225h-75q-65 0 -100 27q-55 46 -62 78q-36 -39 -153 -82t-260 -43z" />
<glyph unicode="&#x67e;" arabic-form="initial" d="M0 0zM495 -660v225h225v-225h-225zM670 -310v225h225v-225h-225zM320 -310v225h225v-225h-225zM658 86q-72 -86 -465 -86h-229v225h174q235 0 279 44q49 49 49 155v176h284v-176q0 -228 -92 -338z" />
<glyph unicode="&#x67e;" arabic-form="medial" d="M0 0zM487 -660v225h225v-225h-225zM662 -310v225h225v-225h-225zM312 -310v225h225v-225h-225zM606 72q-64 -72 -291 -72h-347v225h240q161 0 205 44q49 49 49 155v217h290v-217q0 -106 49 -155q44 -44 207 -44h257v-225h-365q-227 0 -294 72z" />
<glyph unicode="&#x680;" arabic-form="isolated" d="M1208 539q14 -90 14 -203q0 -141 -182 -284q-112 -88 -437 -88q-243 0 -399 52q-177 59 -177 304q0 84 25 186h276q-27 -110 -27 -186q0 -72 103 -120q51 -24 194 -24q124 0 234 68q117 73 117 160t-17 135h276zM339 -720v225h225v-225h-225zM689 -720v225h225v-225h-225 zM689 -370v225h225v-225h-225zM339 -370v225h225v-225h-225z" />
<glyph unicode="&#x680;" arabic-form="final" d="M69 0zM302 -672v225h225v-225h-225zM652 -672v225h225v-225h-225zM652 -322v225h225v-225h-225zM302 -322v225h225v-225h-225zM603 -20q-216 0 -333 41q-201 70 -201 299q0 100 29 186h282q-28 -80 -28 -166q0 -64 103 -109q38 -16 138 -16q50 0 127 23q85 24 122 62 q42 42 42 123q0 86 -16 117h266q19 -75 19 -165q0 -59 24 -110q19 -40 43 -40h33v-225h-75q-65 0 -100 27q-55 46 -62 78q-36 -39 -153 -82t-260 -43z" />
<glyph unicode="&#x680;" arabic-form="initial" d="M0 0zM286 -668v225h225v-225h-225zM636 -668v225h225v-225h-225zM636 -318v225h225v-225h-225zM286 -318v225h225v-225h-225zM658 86q-72 -86 -465 -86h-229v225h174q235 0 279 44q49 49 49 155v176h284v-176q0 -228 -92 -338z" />
<glyph unicode="&#x680;" arabic-form="medial" d="M0 0zM324 -672v225h225v-225h-225zM674 -672v225h225v-225h-225zM674 -322v225h225v-225h-225zM324 -322v225h225v-225h-225zM606 72q-64 -72 -291 -72h-347v225h240q161 0 205 44q49 49 49 155v217h290v-217q0 -106 49 -155q44 -44 207 -44h257v-225h-365 q-227 0 -294 72z" />
<glyph unicode="&#x67a;" arabic-form="isolated" d="M1208 539q14 -90 14 -203q0 -141 -182 -284q-112 -88 -437 -88q-243 0 -399 52q-177 59 -177 304q0 84 25 186h276q-27 -110 -27 -186q0 -72 103 -120q51 -24 194 -24q124 0 234 68q117 73 117 160t-17 135h276zM491 601v225h225v-225h-225zM491 951v225h225v-225h-225z " />
<glyph unicode="&#x67a;" arabic-form="final" d="M69 0zM501 583v225h225v-225h-225zM501 933v225h225v-225h-225zM603 -20q-216 0 -333 41q-201 70 -201 299q0 100 29 186h282q-28 -80 -28 -166q0 -64 103 -109q38 -16 138 -16q50 0 127 23q85 24 122 62q42 42 42 123q0 86 -16 117h266q19 -75 19 -165q0 -59 24 -110 q19 -40 43 -40h33v-225h-75q-65 0 -100 27q-55 46 -62 78q-36 -39 -153 -82t-260 -43z" />
<glyph unicode="&#x67a;" arabic-form="initial" d="M0 0zM500 724v225h225v-225h-225zM500 1074v225h225v-225h-225zM658 86q-72 -86 -465 -86h-229v225h174q235 0 279 44q49 49 49 155v176h284v-176q0 -228 -92 -338z" />
<glyph unicode="&#x67a;" arabic-form="medial" d="M0 0zM495 757v225h225v-225h-225zM495 1107v225h225v-225h-225zM606 72q-64 -72 -291 -72h-347v225h240q161 0 205 44q49 49 49 155v217h290v-217q0 -106 49 -155q44 -44 207 -44h257v-225h-365q-227 0 -294 72z" />
<glyph unicode="&#x67f;" arabic-form="isolated" d="M1208 539q14 -90 14 -203q0 -141 -182 -284q-112 -88 -437 -88q-243 0 -399 52q-177 59 -177 304q0 84 25 186h276q-27 -110 -27 -186q0 -72 103 -120q51 -24 194 -24q124 0 234 68q117 73 117 160t-17 135h276zM327 654v225h225v-225h-225zM677 654v225h225v-225h-225z M677 1004v225h225v-225h-225zM327 1004v225h225v-225h-225z" />
<glyph unicode="&#x67f;" arabic-form="final" d="M69 0zM603 -20q-216 0 -333 41q-201 70 -201 299q0 100 29 186h282q-28 -80 -28 -166q0 -64 103 -109q38 -16 138 -16q50 0 127 23q85 24 122 62q42 42 42 123q0 86 -16 117h266q19 -75 19 -165q0 -59 24 -110q19 -40 43 -40h33v-225h-75q-65 0 -100 27q-55 46 -62 78 q-36 -39 -153 -82t-260 -43zM309 662v225h225v-225h-225zM659 662v225h225v-225h-225zM659 1012v225h225v-225h-225zM309 1012v225h225v-225h-225z" />
<glyph unicode="&#x67f;" arabic-form="initial" d="M0 0zM315 765v225h225v-225h-225zM665 765v225h225v-225h-225zM665 1115v225h225v-225h-225zM315 1115v225h225v-225h-225zM658 86q-72 -86 -465 -86h-229v225h174q235 0 279 44q49 49 49 155v176h284v-176q0 -228 -92 -338z" />
<glyph unicode="&#x67f;" arabic-form="medial" d="M0 0zM320 800v225h225v-225h-225zM670 800v225h225v-225h-225zM670 1150v225h225v-225h-225zM320 1150v225h225v-225h-225zM606 72q-64 -72 -291 -72h-347v225h240q161 0 205 44q49 49 49 155v217h290v-217q0 -106 49 -155q44 -44 207 -44h257v-225h-365q-227 0 -294 72z " />
<glyph unicode="&#x679;" arabic-form="isolated" d="M1208 539q14 -90 14 -203q0 -141 -182 -284q-112 -88 -437 -88q-243 0 -399 52q-177 59 -177 304q0 84 25 186h276q-27 -110 -27 -186q0 -72 103 -120q51 -24 194 -24q124 0 234 68q117 73 117 160t-17 135h276zM641 786h56q34 0 54 12q27 20 27 40q0 14 -9 26t-32 12 q-34 0 -61 -38q-31 -46 -35 -52zM714 686h-237h-96v100h96v460h128v-344q56 76 135 76q83 0 128 -46q38 -40 38 -92q0 -72 -81 -120q-55 -34 -111 -34z" />
<glyph unicode="&#x679;" arabic-form="final" d="M69 0zM603 -20q-216 0 -333 41q-201 70 -201 299q0 100 29 186h282q-28 -80 -28 -166q0 -64 103 -109q38 -16 138 -16q50 0 127 23q85 24 122 62q42 42 42 123q0 86 -16 117h266q19 -75 19 -165q0 -59 24 -110q19 -40 43 -40h33v-225h-75q-65 0 -100 27q-55 46 -62 78 q-36 -39 -153 -82t-260 -43zM637 827h56q34 0 54 12q27 20 27 40q0 14 -9 26t-32 12q-34 0 -61 -38q-31 -46 -35 -52zM710 727h-237h-96v100h96v460h128v-344q56 76 135 76q83 0 128 -46q38 -40 38 -92q0 -72 -81 -120q-55 -34 -111 -34z" />
<glyph unicode="&#x679;" arabic-form="initial" d="M0 0zM612 888h56q34 0 54 12q27 20 27 40q0 14 -9 26t-32 12q-34 0 -61 -38q-31 -46 -35 -52zM685 788h-237h-96v100h96v460h128v-344q56 76 135 76q83 0 128 -46q38 -40 38 -92q0 -72 -81 -120q-55 -34 -111 -34zM658 86q-72 -86 -465 -86h-229v225h174q235 0 279 44 q49 49 49 155v176h284v-176q0 -228 -92 -338z" />
<glyph unicode="&#x679;" arabic-form="medial" d="M0 0zM622 883h56q34 0 54 12q27 20 27 40q0 14 -9 26t-32 12q-34 0 -61 -38q-31 -46 -35 -52zM695 783h-237h-96v100h96v460h128v-344q56 76 135 76q83 0 128 -46q38 -40 38 -92q0 -72 -81 -120q-55 -34 -111 -34zM606 72q-64 -72 -291 -72h-347v225h240q161 0 205 44 q49 49 49 155v217h290v-217q0 -106 49 -155q44 -44 207 -44h257v-225h-365q-227 0 -294 72z" />
<glyph unicode="&#x6a4;" arabic-form="isolated" d="M952 492q20 30 20 68q0 45 -44 80q-31 25 -75 24q-59 -1 -92 -43q-23 -30 -23 -61q0 -66 37 -91q38 -25 82 -25q63 0 95 48zM1108 56q-77 -94 -316 -148q-178 -40 -343 -40q-154 0 -277 41q-275 91 -278 405q-1 138 34 230h288q-36 -94 -36 -230q0 -127 120 -172 q90 -34 149 -34q129 0 243 24q101 21 156 60q51 41 64 60q-31 -16 -98 -16q-146 0 -238 72q-124 97 -124 232q0 99 16 140q45 115 164 168q113 50 211 50q96 0 185 -40q77 -35 170 -171q35 -52 35 -191q0 -286 -125 -440zM735 1569h225v-225h-225v225zM910 1219h225v-225 h-225v225zM560 1219h225v-225h-225v225z" />
<glyph unicode="&#x6a4;" arabic-form="final" d="M0 0zM884 26q-29 -23 -156 -60q-216 -62 -330 -62q-196 0 -328 54q-248 102 -248 356q0 136 31 231h266q-33 -129 -33 -231q0 -106 116 -152q71 -30 202 -30q85 0 240 60q-47 25 -114 110q-85 106 -85 192q0 111 20 154q43 92 162 147q101 47 219 47q151 0 234 -50 q109 -67 128 -100q40 -70 40 -218q0 -128 -90 -248h16h79v-226h-154q-135 0 -215 26zM883 297q87 65 87 163q0 34 -5 62q-5 36 -39 60q-34 25 -74 25q-24 0 -46 -10q-55 -28 -70 -71q-6 -20 -6 -38q0 -42 21 -76q49 -78 132 -115zM739 1537h225v-225h-225v225zM914 1187h225 v-225h-225v225zM564 1187h225v-225h-225v225z" />
<glyph unicode="&#x6a4;" arabic-form="initial" d="M0 0zM560 583q24 26 24 72q0 37 -39 66q-20 14 -45 14q-30 0 -56 -25q-24 -27 -24 -56q0 -48 33 -70q24 -15 49 -15q43 0 58 14zM-20 225h241q237 0 291 31q69 40 83 56q38 44 21 76q-24 -35 -135 -35q-173 0 -257 67q-98 81 -98 216q0 45 8 96q23 148 173 217 q78 36 203 36q132 0 210 -50q59 -38 112 -123q49 -79 49 -192q0 -256 -69 -400q-49 -107 -257 -181q-109 -39 -254 -39h-321v225zM375 1705h225v-225h-225v225zM550 1355h225v-225h-225v225zM200 1355h225v-225h-225v225z" />
<glyph unicode="&#x6a4;" arabic-form="medial" d="M0 0zM788 816q148 -52 184 -140q27 -61 24 -195q-1 -58 -22 -122q-14 -43 -102 -115q42 -19 156 -19h225v-225h-315q-136 0 -322 57q-184 -57 -320 -57h-316v225h226q119 0 154 15q-61 25 -102 119q-20 46 -20 122q0 127 43 199q63 104 151 132q84 25 186 25 q110 0 170 -21zM616 610q-31 0 -47 -13q-25 -20 -37 -43q-20 -39 -20 -66q0 -35 24 -63q43 -50 80 -69q34 23 72 69q24 29 24 63q0 36 -13 67q-12 25 -43 45q-15 10 -40 10zM517 1559h225v-225h-225v225zM692 1209h225v-225h-225v225zM342 1209h225v-225h-225v225z" />
<glyph unicode="&#x6a6;" arabic-form="isolated" d="M952 492q20 30 20 68q0 45 -44 80q-31 25 -75 24q-59 -1 -92 -43q-23 -30 -23 -61q0 -66 37 -91q38 -25 82 -25q63 0 95 48zM1108 56q-77 -94 -316 -148q-178 -40 -343 -40q-154 0 -277 41q-275 91 -278 405q-1 138 34 230h288q-36 -94 -36 -230q0 -127 120 -172 q90 -34 149 -34q129 0 243 24q101 21 156 60q51 41 64 60q-31 -16 -98 -16q-146 0 -238 72q-124 97 -124 232q0 99 16 140q45 115 164 168q113 50 211 50q96 0 185 -40q77 -35 170 -171q35 -52 35 -191q0 -286 -125 -440zM568 1010v225h225v-225h-225zM918 1010v225h225 v-225h-225zM918 1360v225h225v-225h-225zM568 1360v225h225v-225h-225z" />
<glyph unicode="&#x6a6;" arabic-form="final" d="M0 0zM884 26q-29 -23 -156 -60q-216 -62 -330 -62q-196 0 -328 54q-248 102 -248 356q0 136 31 231h266q-33 -129 -33 -231q0 -106 116 -152q71 -30 202 -30q85 0 240 60q-47 25 -114 110q-85 106 -85 192q0 111 20 154q43 92 162 147q101 47 219 47q151 0 234 -50 q109 -67 128 -100q40 -70 40 -218q0 -128 -90 -248h16h79v-226h-154q-135 0 -215 26zM883 297q87 65 87 163q0 34 -5 62q-5 36 -39 60q-34 25 -74 25q-24 0 -46 -10q-55 -28 -70 -71q-6 -20 -6 -38q0 -42 21 -76q49 -78 132 -115zM556 970v225h225v-225h-225zM906 970v225 h225v-225h-225zM906 1320v225h225v-225h-225zM556 1320v225h225v-225h-225z" />
<glyph unicode="&#x6a6;" arabic-form="initial" d="M0 0zM560 583q24 26 24 72q0 37 -39 66q-20 14 -45 14q-30 0 -56 -25q-24 -27 -24 -56q0 -48 33 -70q24 -15 49 -15q43 0 58 14zM-20 225h241q237 0 291 31q69 40 83 56q38 44 21 76q-24 -35 -135 -35q-173 0 -257 67q-98 81 -98 216q0 45 8 96q23 148 173 217 q78 36 203 36q132 0 210 -50q59 -38 112 -123q49 -79 49 -192q0 -256 -69 -400q-49 -107 -257 -181q-109 -39 -254 -39h-321v225zM220 1110v225h225v-225h-225zM570 1110v225h225v-225h-225zM570 1460v225h225v-225h-225zM220 1460v225h225v-225h-225z" />
<glyph unicode="&#x6a6;" arabic-form="medial" d="M0 0zM788 816q148 -52 184 -140q27 -61 24 -195q-1 -58 -22 -122q-14 -43 -102 -115q42 -19 156 -19h225v-225h-315q-136 0 -322 57q-184 -57 -320 -57h-316v225h226q119 0 154 15q-61 25 -102 119q-20 46 -20 122q0 127 43 199q63 104 151 132q84 25 186 25 q110 0 170 -21zM616 610q-31 0 -47 -13q-25 -20 -37 -43q-20 -39 -20 -66q0 -35 24 -63q43 -50 80 -69q34 23 72 69q24 29 24 63q0 36 -13 67q-12 25 -43 45q-15 10 -40 10zM322 964v225h225v-225h-225zM672 964v225h225v-225h-225zM672 1314v225h225v-225h-225zM322 1314 v225h225v-225h-225z" />
<glyph unicode="&#x684;" arabic-form="isolated" d="M88 0zM691 -123v225h225v-225h-225zM691 227v225h225v-225h-225zM88 847q276 64 471 63q292 -1 488 -54v-194q-267 13 -451 -142q-220 -186 -220 -460q0 -171 124 -265q105 -79 292 -79q204 0 405 112v-229q-150 -98 -400 -99q-389 -2 -558 194q-131 152 -131 374 q0 251 144 452q49 68 184 172q-39 3 -118 -9q-135 -19 -230 -60v224z" />
<glyph unicode="&#x684;" arabic-form="final" d="M499 -383v225h225v-225h-225zM499 -33v225h225v-225h-225zM928 452q-1 -62 17 -84q50 -66 147 -113q64 -30 141 -30h40v-225h-49q-132 0 -274 55q-108 42 -200 180q-62 95 -62 203q-109 -72 -179 -134q-220 -195 -220 -460q0 -171 124 -265q105 -79 292 -79 q204 0 405 112v-229q-150 -98 -400 -99q-389 -2 -558 194q-131 152 -131 374q0 251 144 452q49 68 184 172q-39 3 -118 -9q-140 -21 -230 -60v224q276 64 471 63q292 -1 488 -54v-194z" />
<glyph unicode="&#x684;" arabic-form="initial" d="M0 0zM839 541q-43 13 -174 43q-57 13 -265 31q-82 7 -243 1v243q72 7 147 8q169 0 334 -35q241 -52 478 -154v-242q-48 -31 -176 -84q-55 -23 -200 -140q-104 -84 -280 -152q-159 -60 -352 -60h-128v225h100q119 0 320 79q125 49 216 112q59 41 223 125zM281 -642v225 h225v-225h-225zM281 -292v225h225v-225h-225z" />
<glyph unicode="&#x684;" arabic-form="medial" d="M0 0zM835 285q-27 -24 -95 -73q-127 -93 -280 -152q-155 -60 -352 -60h-128v225h100q119 0 320 79q125 49 216 112q59 41 223 125q-43 13 -174 43q-57 13 -265 31q-82 7 -243 1v243q72 7 147 8q159 2 334 -35q241 -52 478 -154v-242q-38 -21 -93 -44q23 -41 55 -76 q81 -91 138 -91h60v-225h-80q-160 0 -281 163q-60 82 -80 122zM525 -550v225h225v-225h-225zM525 -200v225h225v-225h-225z" />
<glyph unicode="&#x683;" arabic-form="isolated" d="M88 0zM868 250h225v-225h-225v225zM518 250h225v-225h-225v225zM88 847q276 64 471 63q292 -1 488 -54v-194q-267 13 -451 -142q-220 -186 -220 -460q0 -171 124 -265q105 -79 292 -79q204 0 405 112v-229q-150 -98 -400 -99q-389 -2 -558 194q-131 152 -131 374 q0 251 144 452q49 68 184 172q-39 3 -118 -9q-135 -19 -230 -60v224z" />
<glyph unicode="&#x683;" arabic-form="final" d="M776 -62h225v-225h-225v225zM426 -62h225v-225h-225v225zM928 452q-1 -62 17 -84q50 -66 147 -113q64 -30 141 -30h40v-225h-49q-132 0 -274 55q-108 42 -200 180q-62 95 -62 203q-109 -72 -179 -134q-220 -195 -220 -460q0 -171 124 -265q105 -79 292 -79q204 0 405 112 v-229q-150 -98 -400 -99q-389 -2 -558 194q-131 152 -131 374q0 251 144 452q49 68 184 172q-39 3 -118 -9q-140 -21 -230 -60v224q276 64 471 63q292 -1 488 -54v-194z" />
<glyph unicode="&#x683;" arabic-form="initial" d="M0 0zM839 541q-43 13 -174 43q-57 13 -265 31q-82 7 -243 1v243q72 7 147 8q169 0 334 -35q241 -52 478 -154v-242q-48 -31 -176 -84q-55 -23 -200 -140q-104 -84 -280 -152q-159 -60 -352 -60h-128v225h100q119 0 320 79q125 49 216 112q59 41 223 125zM458 -87h225 v-225h-225v225zM108 -87h225v-225h-225v225z" />
<glyph unicode="&#x683;" arabic-form="medial" d="M0 0zM835 285q-27 -24 -95 -73q-127 -93 -280 -152q-155 -60 -352 -60h-128v225h100q119 0 320 79q125 49 216 112q59 41 223 125q-43 13 -174 43q-57 13 -265 31q-82 7 -243 1v243q72 7 147 8q159 2 334 -35q241 -52 478 -154v-242q-38 -21 -93 -44q23 -41 55 -76 q81 -91 138 -91h60v-225h-80q-160 0 -281 163q-60 82 -80 122zM670 -47h225v-225h-225v225zM320 -47h225v-225h-225v225z" />
<glyph unicode="&#x686;" arabic-form="isolated" d="M88 0zM689 -188v225h225v-225h-225zM864 162v225h225v-225h-225zM514 162v225h225v-225h-225zM88 847q276 64 471 63q292 -1 488 -54v-194q-267 13 -451 -142q-220 -186 -220 -460q0 -171 124 -265q105 -79 292 -79q204 0 405 112v-229q-150 -98 -400 -99 q-389 -2 -558 194q-131 152 -131 374q0 251 144 452q49 68 184 172q-39 3 -118 -9q-135 -19 -230 -60v224z" />
<glyph unicode="&#x686;" arabic-form="final" d="M541 -434v225h225v-225h-225zM692 -132v225h189q-69 49 -131 142q-62 95 -62 203q-109 -72 -179 -134q-220 -195 -220 -460q0 -171 124 -265q105 -79 292 -79q204 0 405 112v-229q-150 -98 -400 -99q-389 -2 -558 194q-131 152 -131 374q0 251 144 452q49 68 184 172 q-39 3 -118 -9q-140 -21 -230 -60v224q274 64 471 63q294 -1 488 -54v-194l-32 6q-1 -62 17 -84q50 -66 147 -113q64 -30 141 -30h40v-225h-49q-132 0 -274 55q-17 6 -33 15v-202h-225zM390 -132v225h225v-225h-225z" />
<glyph unicode="&#x686;" arabic-form="initial" d="M0 0zM839 541q-43 13 -174 43q-57 13 -265 31q-82 7 -243 1v243q72 7 147 8q169 0 334 -35q241 -52 478 -154v-242q-48 -31 -176 -84q-55 -23 -200 -140q-104 -84 -280 -152q-159 -60 -352 -60h-128v225h100q119 0 320 79q125 49 216 112q59 41 223 125zM343 -658v225 h225v-225h-225zM518 -308v225h225v-225h-225zM168 -308v225h225v-225h-225z" />
<glyph unicode="&#x686;" arabic-form="medial" d="M0 0zM835 285q-27 -24 -95 -73q-127 -93 -280 -152q-155 -60 -352 -60h-128v225h100q119 0 320 79q125 49 216 112q59 41 223 125q-43 13 -174 43q-57 13 -265 31q-82 7 -243 1v243q72 7 147 8q159 2 334 -35q241 -52 478 -154v-242q-38 -21 -93 -44q23 -41 55 -76 q81 -91 138 -91h60v-225h-80q-160 0 -281 163q-60 82 -80 122zM495 -638v225h225v-225h-225zM670 -288v225h225v-225h-225zM320 -288v225h225v-225h-225z" />
<glyph unicode="&#x687;" arabic-form="isolated" d="M88 0zM550 -163v225h225v-225h-225zM900 -163v225h225v-225h-225zM900 187v225h225v-225h-225zM550 187v225h225v-225h-225zM88 847q276 64 471 63q292 -1 488 -54v-194q-267 13 -451 -142q-220 -186 -220 -460q0 -171 124 -265q105 -79 292 -79q204 0 405 112v-229 q-150 -98 -400 -99q-389 -2 -558 194q-131 152 -131 374q0 251 144 452q49 68 184 172q-39 3 -118 -9q-135 -19 -230 -60v224z" />
<glyph unicode="&#x687;" arabic-form="final" d="M421 -373v225h225v-225h-225zM723 -373v225h225v-225h-225zM723 -71v225h90q-32 35 -63 81q-62 95 -62 203q-109 -72 -179 -134q-220 -195 -220 -460q0 -171 124 -265q105 -79 292 -79q204 0 405 112v-229q-150 -98 -400 -99q-389 -2 -558 194q-131 152 -131 374 q0 251 144 452q49 68 184 172q-39 3 -118 -9q-140 -21 -230 -60v224q274 64 471 63q294 -1 488 -54v-194l-32 6q-1 -62 17 -84q50 -66 147 -113q64 -30 141 -30h40v-225q-169 -7 -325 56v-127h-225zM421 -71v225h225v-225h-225z" />
<glyph unicode="&#x687;" arabic-form="initial" d="M0 0zM839 541q-43 13 -174 43q-57 13 -265 31q-82 7 -243 1v243q72 7 147 8q169 0 334 -35q241 -52 478 -154v-242q-48 -31 -176 -84q-55 -23 -200 -140q-104 -84 -280 -152q-159 -60 -352 -60h-128v225h100q119 0 320 79q125 49 216 112q59 41 223 125zM252 -630v225 h225v-225h-225zM602 -630v225h225v-225h-225zM602 -280v225h225v-225h-225zM252 -280v225h225v-225h-225z" />
<glyph unicode="&#x687;" arabic-form="medial" d="M0 0zM835 285q-27 -24 -95 -73q-127 -93 -280 -152q-155 -60 -352 -60h-128v225h100q119 0 320 79q125 49 216 112q59 41 223 125q-43 13 -174 43q-57 13 -265 31q-82 7 -243 1v243q72 7 147 8q159 2 334 -35q241 -52 478 -154v-242q-38 -21 -93 -44q23 -41 55 -76 q81 -91 138 -91h60v-225h-80q-160 0 -281 163q-60 82 -80 122zM340 -638v225h225v-225h-225zM690 -638v225h225v-225h-225zM690 -288v225h225v-225h-225zM340 -288v225h225v-225h-225z" />
<glyph unicode="&#x698;" arabic-form="isolated" d="M0 0zM834 1285h225v-225h-225v225zM1009 935h225v-225h-225v225zM659 935h225v-225h-225v225zM867 154q10 58 10 130q0 126 -53 262h284q50 -118 50 -250q0 -72 -8 -144q-36 -310 -422 -512q-257 -143 -780 -144v245q453 0 664 128q230 139 255 285z" />
<glyph unicode="&#x698;" arabic-form="final" d="M0 0zM714 1285h225v-225h-225v225zM889 935h225v-225h-225v225zM539 935h225v-225h-225v225zM1033 448q-8 52 -33 102h-284q53 -136 53 -262q0 -72 -10 -130q-25 -147 -255 -286q-211 -128 -664 -128v-244q511 1 780 144q300 159 388 378q18 -22 130 -22h115v225h-60 q-73 0 -103 45q-38 60 -57 178z" />
<glyph unicode="&#x691;" arabic-form="isolated" d="M0 0zM867 154q10 58 10 130q0 126 -53 262h284q50 -118 50 -250q0 -72 -8 -144q-36 -310 -422 -512q-257 -143 -780 -144v245q453 0 664 128q230 139 255 285zM946 794h56q34 0 54 12q27 20 27 40q0 14 -9 26t-32 12q-34 0 -61 -38q-31 -46 -35 -52zM1019 694h-237h-96 v100h96v460h128v-344q56 76 135 76q83 0 128 -46q38 -40 38 -92q0 -72 -81 -120q-55 -34 -111 -34z" />
<glyph unicode="&#x691;" arabic-form="final" d="M0 0zM1033 448q-8 52 -33 102h-284q53 -136 53 -262q0 -72 -10 -130q-25 -147 -255 -286q-211 -128 -664 -128v-244q511 1 780 144q300 159 388 378q18 -22 130 -22h115v225h-60q-73 0 -103 45q-38 60 -57 178zM838 823h56q34 0 54 12q27 20 27 40q0 14 -9 26t-32 12 q-34 0 -61 -38q-31 -46 -35 -52zM911 723h-237h-96v100h96v460h128v-344q56 76 135 76q83 0 128 -46q38 -40 38 -92q0 -72 -81 -120q-55 -34 -111 -34z" />
<glyph unicode="&#x6a9;" arabic-form="isolated" d="M10 0zM550 108q120 0 192 34q94 46 133 112q52 88 52 142q0 93 -53 162l-156 202q-33 43 -52 90q-18 47 -18 96q0 57 34 108q49 74 124 134l567 456v-324l-378 -318q-57 -48 -57 -74q0 -49 32 -90l126 -160q120 -152 120 -276q0 -222 -104 -332q-87 -93 -198 -144 q-104 -48 -354 -48q-112 0 -220 32q-330 98 -330 398q0 166 44 230h273q-38 -94 -38 -230q0 -110 121 -174q49 -26 140 -26z" />
<glyph unicode="&#x6a9;" arabic-form="final" d="M907 72q-10 -76 -149 -146q-96 -48 -354 -48q-112 0 -220 32q-330 98 -330 398q0 166 44 230h273q-38 -94 -38 -230q0 -110 121 -174q49 -26 140 -26q120 0 192 34q93 44 133 112q52 88 52 142q0 44 -53 162l-91 202q-30 66 -39 100q-18 67 -18 96q0 64 34 108 q71 92 111 124l567 456v-298l-378 -318q-57 -48 -57 -100q0 -19 32 -90l247 -550q28 -63 73 -63h82v-225h-84q-225 0 -255 33z" />
<glyph unicode="&#x6a9;" arabic-form="initial" d="M0 0zM402 0h-422v225h402q152 0 193 92q16 36 16 72q0 40 -54 106l-257 315q-114 139 -114 210q0 30 10 68q29 109 146 158l745 310v-268l-506 -204q-94 -37 -89 -79q4 -37 78 -125l222 -265q102 -121 102 -246q0 -113 -62 -214q-94 -155 -410 -155z" />
<glyph unicode="&#x6a9;" arabic-form="medial" d="M0 0zM816 164l-24 -34q-86 -130 -372 -130h-450v225h430q152 0 193 92q16 36 16 72q0 40 -54 106l-257 315q-114 139 -114 210q0 30 10 68q29 109 146 158l745 310v-268l-506 -204q-94 -37 -89 -79q4 -36 78 -125l496 -598q21 -26 60 -40q44 -16 100 -16h46v-226h-82 q-225 0 -305 89z" />
<glyph unicode="&#x6af;" arabic-form="isolated" d="M10 0zM1379 1782l-695 -558v261l695 557v-260zM550 108q120 0 192 34q94 46 133 112q52 88 52 142q0 93 -53 162l-156 202q-33 43 -52 90q-18 47 -18 96q0 57 34 108q49 74 124 134l567 456v-324l-378 -318q-57 -48 -57 -74q0 -49 32 -90l126 -160q120 -152 120 -276 q0 -222 -104 -332q-87 -93 -198 -144q-104 -48 -354 -48q-112 0 -220 32q-330 98 -330 398q0 166 44 230h273q-38 -94 -38 -230q0 -110 121 -174q49 -26 140 -26z" />
<glyph unicode="&#x6af;" arabic-form="final" d="M0 0zM907 72q-10 -76 -149 -146q-96 -48 -354 -48q-112 0 -220 32q-330 98 -330 398q0 166 44 230h273q-38 -94 -38 -230q0 -110 121 -174q49 -26 140 -26q120 0 192 34q93 44 133 112q52 88 52 142q0 44 -53 162l-91 202q-30 66 -39 100q-18 67 -18 96q0 64 34 108 q71 92 111 124l567 456v-298l-378 -318q-57 -48 -57 -100q0 -19 32 -90l247 -550q28 -63 73 -63h82v-225h-84q-225 0 -255 33zM1291 1786l-695 -558v261l695 557v-260z" />
<glyph unicode="&#x6af;" arabic-form="initial" d="M0 0zM0 0zM402 0h-422v225h402q152 0 193 92q16 36 16 72q0 40 -54 106l-257 315q-114 139 -114 210q0 30 10 68q29 109 146 158l745 310v-268l-506 -204q-94 -37 -89 -79q4 -37 78 -125l222 -265q102 -121 102 -246q0 -113 -62 -214q-94 -155 -410 -155zM1067 1716 l-924 -404v254l924 404v-254z" />
<glyph unicode="&#x6af;" arabic-form="medial" d="M0 0zM0 0zM816 164l-24 -34q-86 -130 -372 -130h-450v225h430q152 0 193 92q16 36 16 72q0 40 -54 106l-257 315q-114 139 -114 210q0 30 10 68q29 109 146 158l745 310v-268l-506 -204q-94 -37 -89 -79q4 -36 78 -125l496 -598q21 -26 60 -40q44 -16 100 -16h46v-226 h-82q-225 0 -305 89zM1080 1716l-924 -404v254l924 404v-254z" />
<glyph unicode="&#x6ba;" arabic-form="isolated" d="M1200 255q0 -214 -84 -363q-60 -106 -212 -176q-102 -47 -321 -47q-164 0 -295 63q-269 128 -269 394q0 172 49 354h288q-38 -141 -40 -316q-2 -131 124 -204q76 -44 143 -44q105 0 147 20q114 54 150 157q34 98 34 194q0 301 -46 401h292q40 -159 40 -433z" />
<glyph unicode="&#x6ba;" arabic-form="final" d="M1093 16q-12 -166 -81 -288q-60 -106 -212 -176q-102 -47 -321 -47q-164 0 -295 63q-269 130 -269 394q0 172 49 354h288q-38 -141 -40 -316q-2 -131 124 -204q76 -44 143 -44q105 0 147 20q114 54 150 157q34 98 34 194q0 301 -46 401h292q10 -32 23 -148q7 -56 53 -120 q22 -31 70 -31h52v-225h-94q-62 0 -67 16z" />
<glyph unicode="&#x6be;" arabic-form="isolated" d="M0 0zM283 225q57 4 79 4q-34 67 -50 140q-18 81 -18 142q0 69 42 151q37 72 105 111q-40 12 -61 15v232q307 -59 540 -262q236 -206 299 -439q14 -52 14 -109q0 -114 -61 -184q-98 -113 -308 -113q-102 0 -196 35q-69 26 -130 69q-83 -17 -225 -17q-227 0 -287 34 q-121 68 -121 210q0 35 10 68h273q-8 -30 -8 -42q0 -25 39 -39q25 -9 64 -6zM875 284q-35 -80 -99 -136q32 -16 80 -17q109 0 125 67q7 30 7 63q0 30 -33 108q-16 39 -50 84q2 -95 -30 -169zM601 324q17 17 29 36q39 60 39 133q0 28 -15 75q-12 38 -40 38q-32 0 -48 -31 q-22 -43 -22 -70q0 -30 7 -67q10 -53 50 -114z" />
<glyph unicode="&#x6be;" arabic-form="final" d="M1233 225h107v-225h-1027q-227 0 -287 34q-121 68 -121 210q0 35 10 68h273q-8 -30 -8 -42q0 -25 39 -39q29 -10 64 -6q37 4 105 4q-56 47 -76 140q-18 81 -18 142q0 69 42 151q37 72 105 111q-40 12 -61 15v232q325 -62 540 -262q256 -237 299 -425q15 -66 14 -108z M875 284q-23 -41 -23 -49q54 -17 80 -17q49 -1 53 14q7 30 0 63q-1 4 -30 74q-16 39 -50 84q2 -112 -30 -169zM616 346q24 27 28 37q25 55 25 110q0 28 -15 75q-12 38 -40 38q-32 0 -48 -31q-29 -57 -22 -70q1 -2 7 -67q5 -53 65 -92z" />
<glyph unicode="&#x6be;" arabic-form="initial" d="M0 0zM717 284q-35 -80 -99 -136q32 -16 80 -17q109 0 125 67q7 30 7 63q0 30 -33 108q-16 39 -50 84q2 -95 -30 -169zM283 773q-40 12 -61 15v232q307 -59 540 -262q237 -209 299 -439q14 -52 14 -109q0 -114 -61 -184q-101 -113 -308 -113q-102 0 -196 35 q-69 26 -130 69q-83 -17 -225 -17h-175v225h145q42 0 79 4q-34 67 -50 140q-18 81 -18 142q0 69 42 151q37 72 105 111zM443 324q17 17 29 36q39 60 39 133q0 28 -15 75q-12 38 -40 38q-32 0 -48 -31q-22 -43 -22 -70q0 -30 7 -67q10 -53 50 -114z" />
<glyph unicode="&#x6be;" arabic-form="medial" d="M-38 0v225h430q-60 51 -80 144q-18 81 -18 142q0 69 42 151q37 72 105 111q-40 12 -61 15v232q325 -62 540 -262q256 -237 299 -425q15 -66 14 -108h107v-225h-1378zM875 284q-23 -41 -23 -49q54 -17 80 -17q49 -1 53 14q7 30 0 63q-1 4 -30 74q-16 39 -50 84 q2 -112 -30 -169zM616 346q24 27 28 37q25 55 25 110q0 28 -15 75q-12 38 -40 38q-32 0 -48 -31q-29 -57 -22 -70q1 -2 7 -67q5 -53 65 -92z" />
<glyph unicode="&#x649;" arabic-form="initial" d="M658 86q-72 -86 -465 -86h-229v225h174q235 0 279 44q49 49 49 155v176h284v-176q0 -228 -92 -338z" />
<glyph unicode="&#x649;" arabic-form="medial" d="M606 72q-64 -72 -291 -72h-347v225h240q161 0 205 44q49 49 49 155v217h290v-217q0 -106 49 -155q44 -44 207 -44h257v-225h-365q-227 0 -294 72z" />
<glyph unicode="&#x6cc;" arabic-form="isolated" d="M0 0zM1180 -49q-104 -151 -208 -209q-164 -92 -453 -92q-198 0 -319 60q-200 99 -200 412q0 117 63 230h283q-66 -131 -64 -230q2 -159 91 -182q75 -20 158 -20q139 0 228 35q86 34 130 91q52 66 53 117q0 47 -16 73q-34 54 -142 70q-228 32 -226 273q2 176 123 246 q104 60 219 60q227 0 279 -99q54 -105 54 -222h-269q0 60 -14 74q-37 35 -71 34q-25 -1 -51 -26q-28 -30 -28 -60q0 -75 125 -100q194 -39 276 -179q32 -55 32 -152q0 -126 -53 -204z" />
<glyph unicode="&#x6cc;" arabic-form="final" d="M0 0zM743 36q0 25 -17 40q-20 17 -55 53q-47 48 -47 146q0 106 49 173q47 65 125 92q44 15 140 14q86 0 150 -50q73 -58 95 -148q30 -131 58 -131h12v-225h-35q-172 0 -216 172q-43 170 -94 165q-13 -1 -24 -15q-14 -18 -14 -36q0 -12 42 -54q76 -76 76 -184 q0 -146 -62 -206q-75 -72 -186 -123q-154 -71 -311 -71q-122 0 -268 36q-223 56 -240 334q-6 92 30 230h280q-26 -80 -26 -196q1 -110 110 -132q60 -12 112 -13q57 0 159 22q44 10 103 47q54 35 54 60z" />
<glyph unicode="&#x6cc;" arabic-form="initial" d="M0 0zM657 -75h225v-225h-225v225zM307 -75h225v-225h-225v225zM658 86q-72 -86 -465 -86h-229v225h174q235 0 279 44q49 49 49 155v176h284v-176q0 -228 -92 -338z" />
<glyph unicode="&#x6cc;" arabic-form="medial" d="M0 0zM669 -75h225v-225h-225v225zM319 -75h225v-225h-225v225zM606 72q-64 -72 -291 -72h-347v225h240q161 0 205 44q49 49 49 155v217h290v-217q0 -106 49 -155q44 -44 207 -44h257v-225h-365q-227 0 -294 72z" />
<glyph unicode="&#xfe70;" arabic-form="isolated" d="M304 1152zM304 1406v170l624 172v-170zM304 1152v170l624 172v-170z" />
<glyph unicode="&#xfe71;" arabic-form="medial" d="M0 0zM-32 0v225h1297v-225h-1297zM304 1406v170l624 172v-170zM304 1152v170l624 172v-170z" />
<glyph unicode="&#xfe72;" arabic-form="isolated" d="M228 1131zM721 1580q6 20 6 42q0 42 -38 42q-36 0 -36 -35t68 -49zM678 1435q-88 18 -140 75q-48 52 -48 120q0 92 63 140q52 40 129 40q94 0 142 -39q63 -51 63 -154q0 -39 -5 -58q18 -1 52 -1v-160l-97 2q-41 -109 -90 -165q-90 -104 -230 -104q-93 0 -155 34 q-71 40 -111 157q-22 65 -23 191h160q-3 -98 20 -153q36 -83 112 -83q58 0 106 58q32 40 52 100z" />
<glyph unicode="&#xfe74;" arabic-form="isolated" d="M304 -8zM304 -350v170l624 172v-170zM304 -604v170l624 172v-170z" />
<glyph unicode="&#xfe76;" arabic-form="isolated" d="M304 1152zM304 1152v170l624 172v-170z" />
<glyph unicode="&#xfe77;" arabic-form="medial" d="M0 0zM304 1152v170l624 172v-170zM-32 0v225h1297v-225h-1297z" />
<glyph unicode="&#xfe78;" arabic-form="isolated" d="M298 1188zM718 1580q9 20 9 42q0 42 -38 42q-36 0 -36 -35q0 -36 65 -49zM621 1452q-53 25 -83 58q-48 52 -48 120q0 92 63 140q52 40 129 40q95 -2 142 -39q63 -51 63 -154q0 -27 -8 -58q18 -1 55 -1v-160q-15 0 -92 2q-20 1 -39 3q-40 -49 -101 -92 q-148 -107 -404 -123v151q116 18 202 50q70 26 121 63z" />
<glyph unicode="&#xfe79;" arabic-form="medial" d="M0 0zM718 1580q9 20 9 42q0 42 -38 42q-36 0 -36 -35q0 -36 65 -49zM621 1452q-53 25 -83 58q-48 52 -48 120q0 92 63 140q52 40 129 40q95 -2 142 -39q63 -51 63 -154q0 -27 -8 -58q18 -1 55 -1v-160q-15 0 -92 2q-20 1 -39 3q-40 -49 -101 -92q-148 -107 -404 -123v151 q116 18 202 50q70 26 121 63zM-32 0v225h1297v-225h-1297z" />
<glyph unicode="&#xfe7a;" arabic-form="isolated" d="M304 -8zM304 -350v170l624 172v-170z" />
<glyph unicode="&#xfe7b;" arabic-form="medial" d="M0 0zM304 -350v170l624 172v-170zM-32 0v225h1297v-225h-1297z" />
<glyph unicode="&#xfe7c;" arabic-form="isolated" d="M254 1210zM632 1374q-16 -50 -44 -86q-61 -78 -130 -78q-115 -1 -170 80q-34 50 -34 161q0 109 16 207h147q-12 -125 -11 -181q2 -62 25 -97q25 -38 69 -5q36 26 40 173q2 82 2 171h147q-1 -36 3 -90q11 -182 63 -180q71 1 71 159q0 128 -10 172h154q12 -73 9 -189 q-4 -134 -27 -187q-43 -92 -179 -110q-64 -8 -102 24q-35 29 -39 56z" />
<glyph unicode="&#xfe7d;" arabic-form="medial" d="M0 0zM632 1374q-16 -50 -44 -86q-61 -78 -130 -78q-115 -1 -170 80q-34 50 -34 161q0 109 16 207h147q-12 -125 -11 -181q2 -62 25 -97q25 -38 69 -5q36 26 40 173q2 82 2 171h147q-1 -36 3 -90q11 -182 63 -180q71 1 71 159q0 128 -10 172h154q12 -73 9 -189 q-4 -134 -27 -187q-43 -92 -179 -110q-64 -8 -102 24q-35 29 -39 56zM-32 0v225h1297v-225h-1297z" />
<glyph unicode="&#xfe7e;" arabic-form="isolated" d="M315 1222zM738 1524q0 50 -35 85.5t-87 35.5t-86.5 -35t-34.5 -86q0 -52 34.5 -87t86.5 -35t87 35.5t35 86.5zM917 1524.5q0 -126.5 -86.5 -214.5t-213 -88t-214.5 88t-88 214.5t88 213.5t214.5 87t213 -87t86.5 -213.5z" />
<glyph unicode="&#xfe7f;" arabic-form="medial" d="M0 0zM-32 0v225h1297v-225h-1297zM738 1524q0 50 -35 85.5t-87 35.5t-86.5 -35t-34.5 -86q0 -52 34.5 -87t86.5 -35t87 35.5t35 86.5zM917 1524.5q0 -126.5 -86.5 -214.5t-213 -88t-214.5 88t-88 214.5t88 213.5t214.5 87t213 -87t86.5 -213.5z" />
<glyph unicode="&#x621;" arabic-form="isolated" d="M416 27zM434 27v234l206 63q-104 24 -160 100q-64 87 -64 184q0 75 20 172q15 75 140 156q83 54 213 54q110 0 200 -22v-232q-100 31 -170 29q-71 -2 -100 -27q-43 -38 -43 -126q0 -115 148 -152q57 -14 115 1q72 19 130 54v-243q-90 -60 -295 -140q-231 -90 -340 -105z " />
<glyph unicode="&#x622;" arabic-form="isolated" d="M224 0zM224 1838l192 113q62 -61 186 -99q42 -13 96 -13q51 0 100 16q132 41 210 117v-200q-58 -48 -196 -93q-66 -22 -120 -22q-16 0 -110 17q-102 17 -160 82l-198 -118v200zM470 1556h292v-1556h-292v1556z" />
<glyph unicode="&#x622;" arabic-form="final" d="M224 0zM539 412v1144h286v-1132q0 -106 49 -154q44 -44 224 -44h156v-226h-264q-284 0 -364 92q-87 101 -87 320zM224 1838l192 113q62 -61 186 -99q42 -13 96 -13q51 0 100 16q132 41 210 117v-200q-58 -48 -196 -93q-66 -22 -120 -22q-16 0 -110 17q-102 17 -160 82 l-198 -118v200z" />
<glyph unicode="&#x623;" arabic-form="isolated" d="M423 0zM423 1624zM433 1624v124l84 28q-32 17 -60 53q-34 47 -34 98q0 68 20 104q29 55 65 70q67 28 120 28q72 0 136 -31v-121q-60 29 -130 29q-27 0 -43 -14q-23 -21 -23 -63q0 -60 90 -107l126 31v-129zM470 1556h292v-1556h-292v1556z" />
<glyph unicode="&#x623;" arabic-form="final" d="M472 0zM539 412v1144h286v-1132q0 -106 49 -154q44 -44 224 -44h156v-226h-264q-284 0 -364 92q-87 101 -87 320zM472 1624zM482 1624v124l84 28q-32 17 -60 53q-34 47 -34 98q0 68 20 104q29 55 65 70q67 28 120 28q72 0 136 -31v-121q-60 29 -130 29q-27 0 -43 -14 q-23 -21 -23 -63q0 -60 90 -107l126 31v-129z" />
<glyph unicode="&#x624;" arabic-form="isolated" d="M76 0zM529 764zM539 764v124l84 28q-32 17 -60 53q-34 47 -34 98q0 68 20 104q29 55 65 70q67 28 120 28q72 0 136 -31v-121q-60 29 -130 29q-27 0 -43 -14q-23 -21 -23 -63q0 -60 90 -107l126 31v-129zM763 422q-54 0 -79 -35q-24 -33 -24 -69q0 -42 76 -70 q60 -23 160 -23q0 131 -60 172q-37 25 -73 25zM1171 184q0 -285 -172 -468q-79 -84 -179 -130q-188 -86 -744 -86v244q465 0 576 60q188 102 229 199q-51 0 -163 10q-146 13 -236 67q-116 72 -116 235q0 247 211 337q57 24 165 24q185 0 257 -51q126 -91 155 -263 q17 -102 17 -178z" />
<glyph unicode="&#x624;" arabic-form="final" d="M0 0zM687 422q-54 0 -79 -35q-24 -33 -24 -69q0 -42 76 -70q60 -23 160 -23q0 131 -60 172q-37 25 -73 25zM1075 0q-39 -164 -152 -284q-79 -84 -179 -130q-188 -86 -744 -86v244q465 0 576 60q188 102 229 199q-51 0 -163 10q-146 13 -236 67q-116 70 -116 235 q0 247 211 337q57 24 165 24q185 0 257 -51q126 -89 155 -263q13 -75 16 -137h159v-225h-178zM429 760zM439 760v124l84 28q-32 17 -60 53q-34 47 -34 98q0 68 20 104q29 55 65 70q67 28 120 28q72 0 136 -31v-121q-60 29 -130 29q-27 0 -43 -14q-23 -21 -23 -63 q0 -60 90 -107l126 31v-129z" />
<glyph unicode="&#x625;" arabic-form="isolated" d="M426 0zM426 -96zM436 -601v124l84 28q-32 17 -60 53q-34 47 -34 98q0 68 20 104q29 55 65 70q67 28 120 28q72 0 136 -31v-121q-60 29 -130 29q-27 0 -43 -14q-23 -21 -23 -63q0 -60 90 -107l126 31v-129zM470 1556h292v-1556h-292v1556z" />
<glyph unicode="&#x625;" arabic-form="final" d="M519 0zM539 412v1144h286v-1132q0 -106 49 -154q44 -44 224 -44h156v-226h-264q-284 0 -364 92q-87 101 -87 320zM519 -96zM529 -601v124l84 28q-32 17 -60 53q-34 47 -34 98q0 68 20 104q29 55 65 70q67 28 120 28q72 0 136 -31v-121q-60 29 -130 29q-27 0 -43 -14 q-23 -21 -23 -63q0 -60 90 -107l126 31v-129z" />
<glyph unicode="&#x626;" arabic-form="isolated" d="M0 0zM162 721zM172 721v124l84 28q-32 17 -60 53q-34 47 -34 98q0 68 20 104q29 55 65 70q67 28 120 28q72 0 136 -31v-121q-60 29 -130 29q-27 0 -43 -14q-23 -21 -23 -63q0 -60 90 -107l126 31v-129zM1180 -49q-104 -151 -208 -209q-164 -92 -453 -92q-198 0 -319 60 q-200 99 -200 412q0 117 63 230h283q-66 -131 -64 -230q2 -159 91 -182q75 -20 158 -20q139 0 228 35q86 34 130 91q52 66 53 117q0 47 -16 73q-34 54 -142 70q-228 32 -226 273q2 176 123 246q104 60 219 60q227 0 279 -99q54 -105 54 -222h-269q0 60 -14 74q-37 35 -71 34 q-25 -1 -51 -26q-28 -30 -28 -60q0 -75 125 -100q194 -39 276 -179q32 -55 32 -152q0 -126 -53 -204z" />
<glyph unicode="&#x626;" arabic-form="final" d="M0 0zM743 36q0 25 -17 40q-20 17 -55 53q-47 48 -47 146q0 106 49 173q47 65 125 92q44 15 140 14q86 0 150 -50q73 -58 95 -148q30 -131 58 -131h12v-225h-35q-172 0 -216 172q-43 170 -94 165q-13 -1 -24 -15q-14 -18 -14 -36q0 -12 42 -54q76 -76 76 -184 q0 -146 -62 -206q-75 -72 -186 -123q-154 -71 -311 -71q-122 0 -268 36q-223 56 -240 334q-6 92 30 230h280q-26 -80 -26 -196q1 -110 110 -132q60 -12 112 -13q57 0 159 22q44 10 103 47q54 35 54 60zM149 382zM159 382v124l84 28q-32 17 -60 53q-34 47 -34 98q0 68 20 104 q29 55 65 70q67 28 120 28q72 0 136 -31v-121q-60 29 -130 29q-27 0 -43 -14q-23 -21 -23 -63q0 -60 90 -107l126 31v-129z" />
<glyph unicode="&#x626;" arabic-form="initial" d="M0 0zM658 86q-72 -86 -465 -86h-229v225h174q235 0 279 44q49 49 49 155v176h284v-176q0 -228 -92 -338zM411 774zM421 774v124l84 28q-32 17 -60 53q-34 47 -34 98q0 68 20 104q29 55 65 70q67 28 120 28q72 0 136 -31v-121q-60 29 -130 29q-27 0 -43 -14 q-23 -21 -23 -63q0 -60 90 -107l126 31v-129z" />
<glyph unicode="&#x626;" arabic-form="medial" d="M0 0zM606 72q-64 -72 -291 -72h-347v225h240q161 0 205 44q49 49 49 155v217h290v-217q0 -106 49 -155q44 -44 207 -44h257v-225h-365q-227 0 -294 72zM433 774zM443 774v124l84 28q-32 17 -60 53q-34 47 -34 98q0 68 20 104q29 55 65 70q67 28 120 28q72 0 136 -31v-121 q-60 29 -130 29q-27 0 -43 -14q-23 -21 -23 -63q0 -60 90 -107l126 31v-129z" />
<glyph unicode="&#x627;" arabic-form="isolated" d="M470 0zM470 1556h292v-1556h-292v1556z" />
<glyph unicode="&#x627;" arabic-form="final" d="M539 412v1144h286v-1132q0 -106 49 -154q44 -44 224 -44h156v-226h-264q-284 0 -364 92q-87 101 -87 320z" />
<glyph unicode="&#x628;" arabic-form="isolated" d="M1208 539q14 -90 14 -203q0 -141 -182 -284q-112 -88 -437 -88q-243 0 -399 52q-177 59 -177 304q0 84 25 186h276q-27 -110 -27 -186q0 -72 103 -120q51 -24 194 -24q124 0 234 68q117 73 117 160t-17 135h276zM539 -125h225v-225h-225v225z" />
<glyph unicode="&#x628;" arabic-form="final" d="M69 0zM603 -20q-216 0 -333 41q-201 70 -201 299q0 100 29 186h282q-28 -80 -28 -166q0 -64 103 -109q38 -16 138 -16q50 0 127 23q85 24 122 62q42 42 42 123q0 86 -16 117h266q19 -75 19 -165q0 -59 24 -110q19 -40 43 -40h33v-225h-75q-65 0 -100 27q-55 46 -62 78 q-36 -39 -153 -82t-260 -43zM465 -125h225v-225h-225v225z" />
<glyph unicode="&#x628;" arabic-form="initial" d="M0 0zM484 -155h225v-225h-225v225zM658 86q-72 -86 -465 -86h-229v225h174q235 0 279 44q49 49 49 155v176h284v-176q0 -228 -92 -338z" />
<glyph unicode="&#x628;" arabic-form="medial" d="M0 0zM504 -175h225v-225h-225v225zM606 72q-64 -72 -291 -72h-347v225h240q161 0 205 44q49 49 49 155v217h290v-217q0 -106 49 -155q44 -44 207 -44h257v-225h-365q-227 0 -294 72z" />
<glyph unicode="&#x629;" arabic-form="isolated" d="M176 0zM580 1129h225v-225h-225v225zM230 1129h225v-225h-225v225zM553 487q-46 0 -69 -61q-18 -49 -18 -135q1 -57 40 -88t79 -31q64 0 129 40q53 32 53 92q0 54 -47 99q-86 84 -167 84zM490 734q248 0 430 -160q141 -124 141 -272q-1 -200 -148 -280q-148 -81 -347 -80 q-142 0 -223 35q-167 74 -167 313q0 178 37 259q84 185 277 185z" />
<glyph unicode="&#x629;" arabic-form="final" d="M86 0zM665 360q-15 42 -28 91q-13 50 -25 151q-102 -13 -162 -63q-107 -92 -106 -142q3 -82 124 -83q92 0 197 46zM595 810q-4 39 -7 82h280q2 -205 34 -365q26 -124 82 -203q70 -99 156 -99h113v-225h-232q-110 0 -149 52l-76 102q-138 -73 -294 -73q-24 0 -114 15 q-302 50 -302 267q0 209 249 364q109 68 260 83zM620 1273h225v-225h-225v225zM270 1273h225v-225h-225v225z" />
<glyph unicode="&#x62a;" arabic-form="isolated" d="M1208 539q14 -90 14 -203q0 -141 -182 -284q-112 -88 -437 -88q-243 0 -399 52q-177 59 -177 304q0 84 25 186h276q-27 -110 -27 -186q0 -72 103 -120q51 -24 194 -24q124 0 234 68q117 73 117 160t-17 135h276zM673 875h225v-225h-225v225zM323 875h225v-225h-225v225z " />
<glyph unicode="&#x62a;" arabic-form="final" d="M69 0zM603 -20q-216 0 -333 41q-201 70 -201 299q0 100 29 186h282q-28 -80 -28 -166q0 -64 103 -109q38 -16 138 -16q50 0 127 23q85 24 122 62q42 42 42 123q0 86 -16 117h266q19 -75 19 -165q0 -59 24 -110q19 -40 43 -40h33v-225h-75q-65 0 -100 27q-55 46 -62 78 q-36 -39 -153 -82t-260 -43zM682 875h225v-225h-225v225zM332 875h225v-225h-225v225z" />
<glyph unicode="&#x62a;" arabic-form="initial" d="M0 0zM658 86q-72 -86 -465 -86h-229v225h174q235 0 279 44q49 49 49 155v176h284v-176q0 -228 -92 -338zM658 1075h225v-225h-225v225zM308 1075h225v-225h-225v225z" />
<glyph unicode="&#x62a;" arabic-form="medial" d="M0 0zM606 72q-64 -72 -291 -72h-347v225h240q161 0 205 44q49 49 49 155v217h290v-217q0 -106 49 -155q44 -44 207 -44h257v-225h-365q-227 0 -294 72zM668 1075h225v-225h-225v225zM318 1075h225v-225h-225v225z" />
<glyph unicode="&#x62b;" arabic-form="isolated" d="M1208 539q14 -90 14 -203q0 -141 -182 -284q-112 -88 -437 -88q-243 0 -399 52q-177 59 -177 304q0 84 25 186h276q-27 -110 -27 -186q0 -72 103 -120q51 -24 194 -24q124 0 234 68q117 73 117 160t-17 135h276zM493 1225h225v-225h-225v225zM668 875h225v-225h-225v225z M318 875h225v-225h-225v225z" />
<glyph unicode="&#x62b;" arabic-form="final" d="M69 0zM603 -20q-216 0 -333 41q-201 70 -201 299q0 100 29 186h282q-28 -80 -28 -166q0 -64 103 -109q38 -16 138 -16q50 0 127 23q85 24 122 62q42 42 42 123q0 86 -16 117h266q19 -75 19 -165q0 -59 24 -110q19 -40 43 -40h33v-225h-75q-65 0 -100 27q-55 46 -62 78 q-36 -39 -153 -82t-260 -43zM479 1225h225v-225h-225v225zM654 875h225v-225h-225v225zM304 875h225v-225h-225v225z" />
<glyph unicode="&#x62b;" arabic-form="initial" d="M0 0zM481 1425h225v-225h-225v225zM656 1075h225v-225h-225v225zM306 1075h225v-225h-225v225zM658 86q-72 -86 -465 -86h-229v225h174q235 0 279 44q49 49 49 155v176h284v-176q0 -228 -92 -338z" />
<glyph unicode="&#x62b;" arabic-form="medial" d="M0 0zM486 1387h225v-225h-225v225zM661 1037h225v-225h-225v225zM311 1037h225v-225h-225v225zM606 72q-64 -72 -291 -72h-347v225h240q161 0 205 44q49 49 49 155v217h290v-217q0 -106 49 -155q44 -44 207 -44h257v-225h-365q-227 0 -294 72z" />
<glyph unicode="&#x62c;" arabic-form="isolated" d="M88 0zM671 250h225v-225h-225v225zM88 847q276 64 471 63q292 -1 488 -54v-194q-267 13 -451 -142q-220 -186 -220 -460q0 -171 124 -265q105 -79 292 -79q204 0 405 112v-229q-150 -98 -400 -99q-389 -2 -558 194q-131 152 -131 374q0 251 144 452q49 68 184 172 q-39 3 -118 -9q-135 -19 -230 -60v224z" />
<glyph unicode="&#x62c;" arabic-form="final" d="M88 0zM940 660q41 9 107 2v194q-196 53 -488 54q-195 1 -471 -63v-224q90 39 230 60q79 12 118 9q-135 -104 -184 -172q-144 -201 -144 -452q0 -222 131 -374q169 -196 558 -194q250 1 400 99v229q-201 -112 -405 -112q-187 0 -292 79q-124 94 -124 265q0 255 220 460 q73 68 112 72q6 -136 47 -232q59 -136 167 -235q138 -125 302 -125h49v225h-40q-96 0 -193 110q-110 125 -110 240q0 45 10 85zM552 175h225v-225h-225v225z" />
<glyph unicode="&#x62c;" arabic-form="initial" d="M0 0zM839 541q-43 13 -174 43q-57 13 -265 31q-82 7 -243 1v243q72 7 147 8q169 0 334 -35q241 -52 478 -154v-242q-48 -31 -176 -84q-55 -23 -200 -140q-104 -84 -280 -152q-159 -60 -352 -60h-128v225h100q119 0 320 79q125 49 216 112q59 41 223 125zM525 -75h225 v-225h-225v225z" />
<glyph unicode="&#x62c;" arabic-form="medial" d="M0 0zM835 285q-27 -24 -95 -73q-127 -93 -280 -152q-155 -60 -352 -60h-128v225h100q119 0 320 79q125 49 216 112q59 41 223 125q-43 13 -174 43q-57 13 -265 31q-82 7 -243 1v243q72 7 147 8q159 2 334 -35q241 -52 478 -154v-242q-38 -21 -93 -44q23 -41 55 -76 q81 -91 138 -91h60v-225h-80q-160 0 -281 163q-60 82 -80 122zM525 -75h225v-225h-225v225z" />
<glyph unicode="&#x62d;" arabic-form="isolated" d="M88 0zM88 847q276 64 471 63q292 -1 488 -54v-194q-267 13 -451 -142q-220 -186 -220 -460q0 -171 124 -265q105 -79 292 -79q204 0 405 112v-229q-150 -98 -400 -99q-389 -2 -558 194q-131 152 -131 374q0 251 144 452q49 68 184 172q-39 3 -118 -9q-135 -19 -230 -60 v224z" />
<glyph unicode="&#x62d;" arabic-form="final" d="M940 660q41 9 107 2v194q-196 53 -488 54q-195 1 -471 -63v-224q90 39 230 60q79 12 118 9q-135 -104 -184 -172q-144 -201 -144 -452q0 -222 131 -374q169 -196 558 -194q250 1 400 99v229q-201 -112 -405 -112q-187 0 -292 79q-124 94 -124 265q0 255 220 460 q73 68 112 72q6 -136 47 -232q59 -136 167 -235q138 -125 302 -125h49v225h-40q-96 0 -193 110q-110 125 -110 240q0 45 10 85z" />
<glyph unicode="&#x62d;" arabic-form="initial" d="M839 541q-43 13 -174 43q-57 13 -265 31q-82 7 -243 1v243q72 7 147 8q169 0 334 -35q241 -52 478 -154v-242q-48 -31 -176 -84q-55 -23 -200 -140q-104 -84 -280 -152q-159 -60 -352 -60h-128v225h100q119 0 320 79q125 49 216 112q59 41 223 125z" />
<glyph unicode="&#x62d;" arabic-form="medial" d="M835 285q-27 -24 -95 -73q-127 -93 -280 -152q-155 -60 -352 -60h-128v225h100q119 0 320 79q125 49 216 112q59 41 223 125q-43 13 -174 43q-57 13 -265 31q-82 7 -243 1v243q72 7 147 8q159 2 334 -35q241 -52 478 -154v-242q-38 -21 -93 -44q23 -41 55 -76 q81 -91 138 -91h60v-225h-80q-160 0 -281 163q-60 82 -80 122z" />
<glyph unicode="&#x62e;" arabic-form="isolated" d="M88 0zM476 1275h225v-225h-225v225zM88 847q276 64 471 63q292 -1 488 -54v-194q-267 13 -451 -142q-220 -186 -220 -460q0 -171 124 -265q105 -79 292 -79q204 0 405 112v-229q-150 -98 -400 -99q-389 -2 -558 194q-131 152 -131 374q0 251 144 452q49 68 184 172 q-39 3 -118 -9q-135 -19 -230 -60v224z" />
<glyph unicode="&#x62e;" arabic-form="final" d="M88 0zM940 660q41 9 107 2v194q-196 53 -488 54q-195 1 -471 -63v-224q90 39 230 60q79 12 118 9q-135 -104 -184 -172q-144 -201 -144 -452q0 -222 131 -374q169 -196 558 -194q250 1 400 99v229q-201 -112 -405 -112q-187 0 -292 79q-124 94 -124 265q0 255 220 460 q73 68 112 72q6 -136 47 -232q59 -136 167 -235q138 -125 302 -125h49v225h-40q-96 0 -193 110q-110 125 -110 240q0 45 10 85zM472 1275h225v-225h-225v225z" />
<glyph unicode="&#x62e;" arabic-form="initial" d="M0 0zM839 541q-43 13 -174 43q-57 13 -265 31q-82 7 -243 1v243q72 7 147 8q169 0 334 -35q241 -52 478 -154v-242q-48 -31 -176 -84q-55 -23 -200 -140q-104 -84 -280 -152q-159 -60 -352 -60h-128v225h100q119 0 320 79q125 49 216 112q59 41 223 125zM412 1247h225 v-225h-225v225z" />
<glyph unicode="&#x62e;" arabic-form="medial" d="M0 0zM835 285q-27 -24 -95 -73q-127 -93 -280 -152q-155 -60 -352 -60h-128v225h100q119 0 320 79q125 49 216 112q59 41 223 125q-43 13 -174 43q-57 13 -265 31q-82 7 -243 1v243q72 7 147 8q159 2 334 -35q241 -52 478 -154v-242q-38 -21 -93 -44q23 -41 55 -76 q81 -91 138 -91h60v-225h-80q-160 0 -281 163q-60 82 -80 122zM525 1175h225v-225h-225v225z" />
<glyph unicode="&#x62f;" arabic-form="isolated" d="M232 0zM596 211q174 50 207 161q8 27 8 69q0 93 -60 194q-69 115 -239 299h327q107 -108 179 -239q82 -152 82 -257q0 -194 -96 -316q-93 -119 -378 -153q-58 -7 -140 -7q-151 0 -254 38v244q115 -42 248 -42q82 0 116 9z" />
<glyph unicode="&#x62f;" arabic-form="final" d="M1100 438q-5 117 -82 257q-72 131 -179 239h-327q170 -184 239 -299q60 -101 60 -194q0 -42 -8 -69q-34 -115 -207 -161q-34 -9 -116 -9q-133 0 -248 42v-244q103 -38 254 -38q82 0 140 7q285 34 378 153q91 -122 166 -122h83v225h-28q-31 0 -59 17q-70 45 -66 92 q4 43 0 104z" />
<glyph unicode="&#x630;" arabic-form="isolated" d="M232 0zM556 1327h225v-225h-225v225zM596 211q174 50 207 161q8 27 8 69q0 93 -60 194q-69 115 -239 299h327q107 -108 179 -239q82 -152 82 -257q0 -194 -96 -316q-93 -119 -378 -153q-58 -7 -140 -7q-151 0 -254 38v244q115 -42 248 -42q82 0 116 9z" />
<glyph unicode="&#x630;" arabic-form="final" d="M232 0zM1100 438q-5 117 -82 257q-72 131 -179 239h-327q170 -184 239 -299q60 -101 60 -194q0 -42 -8 -69q-34 -115 -207 -161q-34 -9 -116 -9q-133 0 -248 42v-244q103 -38 254 -38q82 0 140 7q285 34 378 153q91 -122 166 -122h83v225h-28q-31 0 -59 17q-70 45 -66 92 q4 43 0 104zM561 1351h225v-225h-225v225z" />
<glyph unicode="&#x631;" arabic-form="isolated" d="M0 0zM867 154q10 58 10 130q0 126 -53 262h284q50 -118 50 -250q0 -72 -8 -144q-36 -310 -422 -512q-257 -143 -780 -144v245q453 0 664 128q230 139 255 285z" />
<glyph unicode="&#x631;" arabic-form="final" d="M1033 448q-8 52 -33 102h-284q53 -136 53 -262q0 -72 -10 -130q-25 -147 -255 -286q-211 -128 -664 -128v-244q511 1 780 144q300 159 388 378q18 -22 130 -22h115v225h-60q-73 0 -103 45q-38 60 -57 178z" />
<glyph unicode="&#x632;" arabic-form="isolated" d="M0 0zM845 1005h225v-225h-225v225zM867 154q10 58 10 130q0 126 -53 262h284q50 -118 50 -250q0 -72 -8 -144q-36 -310 -422 -512q-257 -143 -780 -144v245q453 0 664 128q230 139 255 285z" />
<glyph unicode="&#x632;" arabic-form="final" d="M0 0zM1033 448q-8 52 -33 102h-284q53 -136 53 -262q0 -72 -10 -130q-25 -147 -255 -286q-211 -128 -664 -128v-244q511 1 780 144q300 159 388 378q18 -22 130 -22h115v225h-60q-73 0 -103 45q-38 60 -57 178zM728 1021h225v-225h-225v225z" />
<glyph unicode="&#x633;" arabic-form="isolated" d="M0 0zM473 27q-3 -89 -31 -229q-25 -123 -85 -198q-71 -92 -222 -92q-131 0 -232 100q-99 97 -99 328q0 217 53 362h227q-48 -214 -42 -362q4 -119 40 -179q22 -36 54 -36q30 0 71 54q28 35 41 129q15 108 16 276q0 87 -17 186l-41 234h235l18 -156q10 -88 38 -180 q21 -69 57 -69q35 0 57 108q15 72 15 297h234q0 -207 32 -339q20 -77 53 -77q47 0 47 272v294h241v-342q0 -230 -67 -336q-32 -50 -86 -72q-71 -29 -135 -29q-74 0 -121 51q-66 72 -77 131q-3 -47 -48 -117q-37 -57 -147 -54q-51 2 -79 45z" />
<glyph unicode="&#x633;" arabic-form="final" d="M1165 750h-241v-294q0 -272 -47 -272q-33 0 -53 77q-32 132 -32 339h-234q0 -225 -15 -297q-22 -108 -57 -108q-36 0 -57 69q-28 92 -38 180l-18 156h-235l41 -234q17 -99 17 -186q-1 -168 -16 -276q-13 -94 -41 -129q-42 -54 -71 -54q-32 0 -54 36q-36 60 -40 179 q-6 148 42 362h-227q-53 -145 -53 -362q0 -231 99 -328q101 -100 232 -100q151 0 222 92q60 75 85 198q28 140 31 229q28 -43 79 -45q110 -3 147 54q45 70 48 117q11 -59 77 -131q47 -51 121 -51q64 0 135 29q54 22 86 72q44 -72 96 -72h63v225h-8q-24 0 -41 17 q-43 43 -43 207v301z" />
<glyph unicode="&#x633;" arabic-form="initial" d="M552 -18q110 -3 147 54q45 70 48 117q11 -59 77 -131q47 -51 121 -51q64 0 135 29q54 22 86 72q67 106 67 336v342h-241v-294q0 -272 -47 -272q-33 0 -53 77q-32 132 -32 339h-234q0 -225 -15 -297q-22 -108 -57 -108q-81 0 -102 84q-20 75 -20 165v156h-240v-192 q0 -77 -70 -148q-36 -35 -100 -35h-42v-225h70q101 0 160 37q73 46 90 96q7 -43 84 -109q45 -39 168 -42z" />
<glyph unicode="&#x633;" arabic-form="medial" d="M776 600h-234q0 -228 -15 -297q-22 -108 -57 -108q-81 0 -102 84q-20 75 -20 165v156h-240v-192q0 -109 -38 -148q-36 -35 -63 -35h-27v-225h54q80 0 124 37q23 20 58 96q7 -43 84 -109q45 -39 168 -42q110 -3 147 54q45 70 48 117q11 -59 77 -131q47 -51 121 -51 q64 0 135 29q54 22 86 72q44 -72 96 -72h78v225h-23q-24 0 -41 17q-43 43 -43 207v301h-241v-294q0 -272 -47 -272q-33 0 -53 77q-32 132 -32 339z" />
<glyph unicode="&#x634;" arabic-form="isolated" d="M0 0zM485 1375h225v-225h-225v225zM660 1025h225v-225h-225v225zM310 1025h225v-225h-225v225zM473 27q-3 -89 -31 -229q-25 -123 -85 -198q-71 -92 -222 -92q-131 0 -232 100q-99 97 -99 328q0 217 53 362h227q-48 -214 -42 -362q4 -119 40 -179q22 -36 54 -36 q30 0 71 54q28 35 41 129q15 108 16 276q0 87 -17 186l-41 234h235l18 -156q10 -88 38 -180q21 -69 57 -69q35 0 57 108q15 72 15 297h234q0 -207 32 -339q20 -77 53 -77q47 0 47 272v294h241v-342q0 -230 -67 -336q-32 -50 -86 -72q-71 -29 -135 -29q-74 0 -121 51 q-66 72 -77 131q-3 -47 -48 -117q-37 -57 -147 -54q-51 2 -79 45z" />
<glyph unicode="&#x634;" arabic-form="final" d="M0 0zM1165 750h-241v-294q0 -272 -47 -272q-33 0 -53 77q-32 132 -32 339h-234q0 -225 -15 -297q-22 -108 -57 -108q-36 0 -57 69q-28 92 -38 180l-18 156h-235l41 -234q17 -99 17 -186q-1 -168 -16 -276q-13 -94 -41 -129q-42 -54 -71 -54q-32 0 -54 36q-36 60 -40 179 q-6 148 42 362h-227q-53 -145 -53 -362q0 -231 99 -328q101 -100 232 -100q151 0 222 92q60 75 85 198q28 140 31 229q28 -43 79 -45q110 -3 147 54q45 70 48 117q11 -59 77 -131q47 -51 121 -51q64 0 135 29q54 22 86 72q44 -72 96 -72h63v225h-8q-24 0 -41 17 q-43 43 -43 207v301zM411 1375h225v-225h-225v225zM586 1025h225v-225h-225v225zM236 1025h225v-225h-225v225z" />
<glyph unicode="&#x634;" arabic-form="initial" d="M0 0zM552 -18q110 -3 147 54q45 70 48 117q11 -59 77 -131q47 -51 121 -51q64 0 135 29q54 22 86 72q67 106 67 336v342h-241v-294q0 -272 -47 -272q-33 0 -53 77q-32 132 -32 339h-234q0 -225 -15 -297q-22 -108 -57 -108q-81 0 -102 84q-20 75 -20 165v156h-240v-192 q0 -77 -70 -148q-36 -35 -100 -35h-42v-225h70q101 0 160 37q73 46 90 96q7 -43 84 -109q45 -39 168 -42zM457 1375h225v-225h-225v225zM632 1025h225v-225h-225v225zM282 1025h225v-225h-225v225z" />
<glyph unicode="&#x634;" arabic-form="medial" d="M0 0zM776 600h-234q0 -228 -15 -297q-22 -108 -57 -108q-81 0 -102 84q-20 75 -20 165v156h-240v-192q0 -109 -38 -148q-36 -35 -63 -35h-27v-225h54q80 0 124 37q23 20 58 96q7 -43 84 -109q45 -39 168 -42q110 -3 147 54q45 70 48 117q11 -59 77 -131q47 -51 121 -51 q64 0 135 29q54 22 86 72q44 -72 96 -72h78v225h-23q-24 0 -41 17q-43 43 -43 207v301h-241v-294q0 -272 -47 -272q-33 0 -53 77q-32 132 -32 339zM373 1375h225v-225h-225v225zM548 1025h225v-225h-225v225zM198 1025h225v-225h-225v225z" />
<glyph unicode="&#x635;" arabic-form="isolated" d="M0 0zM612 225h128q93 0 122 20q62 44 62 80q0 32 -22 62q-20 27 -72 27q-70 0 -138 -81q-55 -66 -80 -108zM414 360q67 87 132 156q131 139 290 137q210 -2 292 -104q88 -110 88 -212q0 -196 -163 -292q-76 -45 -275 -45h-218q-37 0 -90 30q-44 26 -44 42 q-4 -83 -32 -228q-21 -109 -126 -244q-71 -92 -222 -92q-131 0 -232 100q-99 97 -99 328q0 217 53 362h227q-48 -214 -42 -362q4 -119 40 -179q22 -36 54 -36q36 0 78 54q27 33 48 129q31 141 14 276q-12 93 -26 186l-11 84h234q17 -39 30 -90z" />
<glyph unicode="&#x635;" arabic-form="final" d="M558 225h128q93 0 122 20q62 44 62 80q0 32 -22 62q-20 27 -72 27q-70 0 -138 -81q-55 -66 -80 -108zM1155 280q16 -22 31 -35q26 -19 42 -20h32v-225h-51q-51 0 -128 56l-33 24q-10 -15 -49 -35q-95 -45 -275 -45h-218q-37 0 -90 30q-44 26 -44 42q-4 -83 -32 -228 q-21 -109 -126 -244q-71 -92 -222 -92q-131 0 -232 100q-99 97 -99 328q0 217 53 362h227q-48 -214 -42 -362q4 -119 40 -179q22 -36 54 -36q36 0 78 54q27 33 48 129q31 141 14 276q-12 93 -26 186l-11 84h234q17 -39 30 -90q67 87 132 156q131 139 290 137 q210 -2 292 -104q88 -110 88 -212q0 -39 -7 -57z" />
<glyph unicode="&#x635;" arabic-form="initial" d="M342 15q-60 21 -97 57q-25 -27 -63 -44q-58 -28 -145 -28h-69v225h42q40 0 80 40q48 47 48 143v114h239v-78q0 -78 19 -98q72 96 150 170q147 139 290 137q210 -2 292 -104q88 -110 88 -212q0 -196 -163 -292q-76 -45 -275 -45h-218q-175 0 -218 15zM612 225h128 q93 0 122 20q62 44 62 80q0 32 -22 62q-20 27 -72 27q-70 0 -138 -81q-55 -66 -80 -108z" />
<glyph unicode="&#x635;" arabic-form="medial" d="M792 414q-69 0 -136 -81q-56 -66 -82 -108h130q92 0 120 20q63 44 63 80q0 32 -22 62q-19 27 -73 27zM742 0h-218q-162 0 -218 15q-81 21 -98 42q-20 -24 -48 -38q-37 -19 -123 -19h-69v225h42q40 0 62 36q28 47 28 147v114h240v-78q0 -78 20 -98q70 96 149 170 q147 139 291 137q209 -2 290 -104q88 -110 88 -212q0 -39 -6 -57q12 -27 26 -37q25 -18 31 -18h36v-225h-51q-72 0 -123 53l-26 27q-11 -17 -49 -35q-95 -45 -274 -45z" />
<glyph unicode="&#x636;" arabic-form="isolated" d="M0 0zM335 895h225v-225h-225v225zM612 225h128q93 0 122 20q62 44 62 80q0 32 -22 62q-20 27 -72 27q-70 0 -138 -81q-55 -66 -80 -108zM414 360q67 87 132 156q131 139 290 137q210 -2 292 -104q88 -110 88 -212q0 -196 -163 -292q-76 -45 -275 -45h-218q-37 0 -90 30 q-44 26 -44 42q-4 -83 -32 -228q-21 -109 -126 -244q-71 -92 -222 -92q-131 0 -232 100q-99 97 -99 328q0 217 53 362h227q-48 -214 -42 -362q4 -119 40 -179q22 -36 54 -36q36 0 78 54q27 33 48 129q31 141 14 276q-12 93 -26 186l-11 84h234q17 -39 30 -90z" />
<glyph unicode="&#x636;" arabic-form="final" d="M0 0zM558 225h128q93 0 122 20q62 44 62 80q0 32 -22 62q-20 27 -72 27q-70 0 -138 -81q-55 -66 -80 -108zM1155 280q16 -22 31 -35q26 -19 42 -20h32v-225h-51q-51 0 -128 56l-33 24q-10 -15 -49 -35q-95 -45 -275 -45h-218q-37 0 -90 30q-44 26 -44 42q-4 -83 -32 -228 q-21 -109 -126 -244q-71 -92 -222 -92q-131 0 -232 100q-99 97 -99 328q0 217 53 362h227q-48 -214 -42 -362q4 -119 40 -179q22 -36 54 -36q36 0 78 54q27 33 48 129q31 141 14 276q-12 93 -26 186l-11 84h234q17 -39 30 -90q67 87 132 156q131 139 290 137 q210 -2 292 -104q88 -110 88 -212q0 -39 -7 -57zM260 895h225v-225h-225v225z" />
<glyph unicode="&#x636;" arabic-form="initial" d="M0 0zM342 15q-60 21 -97 57q-25 -27 -63 -44q-58 -28 -145 -28h-69v225h42q40 0 80 40q48 47 48 143v114h239v-78q0 -78 19 -98q72 96 150 170q147 139 290 137q210 -2 292 -104q88 -110 88 -212q0 -196 -163 -292q-76 -45 -275 -45h-218q-175 0 -218 15zM612 225h128 q93 0 122 20q62 44 62 80q0 32 -22 62q-20 27 -72 27q-70 0 -138 -81q-55 -66 -80 -108zM287 961h225v-225h-225v225z" />
<glyph unicode="&#x636;" arabic-form="medial" d="M0 0zM792 414q-69 0 -136 -81q-56 -66 -82 -108h130q92 0 120 20q63 44 63 80q0 32 -22 62q-19 27 -73 27zM742 0h-218q-162 0 -218 15q-81 21 -98 42q-20 -24 -48 -38q-37 -19 -123 -19h-69v225h42q40 0 62 36q28 47 28 147v114h240v-78q0 -78 20 -98q70 96 149 170 q147 139 291 137q209 -2 290 -104q88 -110 88 -212q0 -39 -6 -57q12 -27 26 -37q25 -18 31 -18h36v-225h-51q-72 0 -123 53l-26 27q-11 -17 -49 -35q-95 -45 -274 -45zM232 947h225v-225h-225v225z" />
<glyph unicode="&#x637;" arabic-form="isolated" d="M10 0zM601 225h129q77 0 121 31q62 44 62 88q0 32 -21 62q-20 28 -73 28q-77 0 -137 -90q-71 -106 -81 -119zM768 0h-540h-218v225h218v1331h291v-1064q128 172 307 172q190 0 291 -104q88 -91 88 -212q0 -164 -184 -273q-126 -75 -253 -75z" />
<glyph unicode="&#x637;" arabic-form="final" d="M537 225h129q77 0 121 31q62 44 62 88q0 32 -21 62q-20 28 -73 28q-77 0 -137 -90q-71 -106 -81 -119zM1141 348q1 -60 -7 -76q30 -48 74 -48h46v-224h-108q-73 0 -140 79l-16 19q-117 -98 -286 -98h-540h-164v225h164v1331h291v-1064q128 172 307 172q187 0 291 -104 q88 -88 88 -212z" />
<glyph unicode="&#x637;" arabic-form="initial" d="M601 225h129q77 0 121 31q62 44 62 88q0 32 -21 62q-20 28 -73 28q-77 0 -137 -90q-71 -106 -81 -119zM768 0h-540h-276v225h276v1331h291v-1064q128 172 307 172q190 0 291 -104q88 -91 88 -212q0 -164 -184 -273q-126 -75 -253 -75z" />
<glyph unicode="&#x637;" arabic-form="medial" d="M537 225h129q77 0 121 31q62 44 62 88q0 32 -21 62q-20 28 -73 28q-77 0 -137 -90q-71 -106 -81 -119zM1141 348q1 -68 -7 -76q30 -48 74 -48h46v-224h-108q-73 0 -140 79l-16 19q-117 -98 -286 -98h-540h-200v225h200v1331h291v-1064q128 172 307 172q196 0 291 -104 q88 -96 88 -212z" />
<glyph unicode="&#x638;" arabic-form="isolated" d="M10 0zM634 1037h225v-225h-225v225zM601 225h129q77 0 121 31q62 44 62 88q0 32 -21 62q-20 28 -73 28q-77 0 -137 -90q-71 -106 -81 -119zM768 0h-540h-218v225h218v1331h291v-1064q128 172 307 172q190 0 291 -104q88 -91 88 -212q0 -164 -184 -273q-126 -75 -253 -75z " />
<glyph unicode="&#x638;" arabic-form="final" d="M0 0zM537 225h129q77 0 121 31q62 44 62 88q0 32 -21 62q-20 28 -73 28q-77 0 -137 -90q-71 -106 -81 -119zM1141 348q1 -60 -7 -76q30 -48 74 -48h46v-224h-108q-73 0 -140 79l-16 19q-117 -98 -286 -98h-540h-164v225h164v1331h291v-1064q128 172 307 172 q187 0 291 -104q88 -88 88 -212zM579 1042h225v-225h-225v225z" />
<glyph unicode="&#x638;" arabic-form="initial" d="M0 0zM601 225h129q77 0 121 31q62 44 62 88q0 32 -21 62q-20 28 -73 28q-77 0 -137 -90q-71 -106 -81 -119zM768 0h-540h-276v225h276v1331h291v-1064q128 172 307 172q190 0 291 -104q88 -91 88 -212q0 -164 -184 -273q-126 -75 -253 -75zM645 1047h225v-225h-225v225z " />
<glyph unicode="&#x638;" arabic-form="medial" d="M0 0zM537 225h129q77 0 121 31q62 44 62 88q0 32 -21 62q-20 28 -73 28q-77 0 -137 -90q-71 -106 -81 -119zM1141 348q1 -68 -7 -76q30 -48 74 -48h46v-224h-108q-73 0 -140 79l-16 19q-117 -98 -286 -98h-540h-200v225h200v1331h291v-1064q128 172 307 172 q196 0 291 -104q88 -96 88 -212zM579 1037h225v-225h-225v225z" />
<glyph unicode="&#x639;" arabic-form="isolated" d="M72 0zM393 -110q130 -165 341 -165q261 0 473 118v-244q-150 -99 -469 -99q-402 0 -568 188q-98 111 -98 312q0 207 87 308l121 140q-36 0 -96 72t-60 160q0 163 132 265q207 159 537 180v-217q-201 -21 -311 -105q-70 -54 -70 -103q0 -73 28 -89q38 -22 88 -22 q46 0 81 18q139 69 412 91v-221q-293 -28 -509 -175q-160 -109 -160 -302q0 -57 41 -110z" />
<glyph unicode="&#x639;" arabic-form="final" d="M524 455l-17 17q-34 50 -34 66q0 20 39 35q13 5 35 4q19 0 36 -4q45 -11 47 -27q4 -25 -51 -60zM482 186q239 -186 578 -186h208v226h-224q-136 0 -195 20q-66 23 -147 77q106 66 156 117q70 70 70 118q0 64 -14 102q-19 57 -120 108q-89 44 -247 44q-135 0 -229 -44 q-111 -52 -132 -111q-21 -57 -21 -99q0 -55 58 -129q54 -69 93 -98q-129 -90 -156 -128q-76 -110 -76 -203q-2 -159 120 -303q169 -199 629 -197q250 1 400 99v254q-212 -118 -405 -118q-326 0 -411 121q-47 67 -47 144q0 108 112 186z" />
<glyph unicode="&#x639;" arabic-form="initial" d="M61 225q151 0 331 83q-65 13 -146 87q-110 101 -110 246q0 271 228 379q160 76 425 97v-239q-198 -23 -311 -90q-74 -45 -74 -114q0 -75 88 -158q56 -53 183 -53q51 0 129 33l213 90v-266l-420 -197q-262 -123 -528 -123h-89v225h81z" />
<glyph unicode="&#x639;" arabic-form="medial" d="M798 303q87 -72 236 -78h219v-225h-369q-104 0 -270 132q-162 -132 -266 -132h-368v225h218q139 6 232 73q-86 86 -155 176q-30 39 -30 84q0 72 36 118q42 54 127 91q106 45 208 45q105 0 208 -45q97 -43 129 -88q36 -50 34 -121q-1 -51 -30 -84q-83 -94 -159 -171z M616 443q81 78 81 94q0 24 -25 33q-20 7 -56 7q-40 0 -56 -7q-25 -11 -25 -33q0 -16 81 -94z" />
<glyph unicode="&#x63a;" arabic-form="isolated" d="M72 0zM310 1455h225v-225h-225v225zM393 -110q130 -165 341 -165q261 0 473 118v-244q-150 -99 -469 -99q-402 0 -568 188q-98 111 -98 312q0 207 87 308l121 140q-36 0 -96 72t-60 160q0 163 132 265q207 159 537 180v-217q-201 -21 -311 -105q-70 -54 -70 -103 q0 -73 28 -89q38 -22 88 -22q46 0 81 18q139 69 412 91v-221q-293 -28 -509 -175q-160 -109 -160 -302q0 -57 41 -110z" />
<glyph unicode="&#x63a;" arabic-form="final" d="M84 0zM524 455l-17 17q-34 50 -34 66q0 20 39 35q13 5 35 4q19 0 36 -4q45 -11 47 -27q4 -25 -51 -60zM482 186q239 -186 578 -186h208v226h-224q-136 0 -195 20q-66 23 -147 77q106 66 156 117q70 70 70 118q0 64 -14 102q-19 57 -120 108q-89 44 -247 44 q-135 0 -229 -44q-111 -52 -132 -111q-21 -57 -21 -99q0 -55 58 -129q54 -69 93 -98q-129 -90 -156 -128q-76 -110 -76 -203q-2 -159 120 -303q169 -199 629 -197q250 1 400 99v254q-212 -118 -405 -118q-326 0 -411 121q-47 67 -47 144q0 108 112 186zM425 1175h225v-225 h-225v225z" />
<glyph unicode="&#x63a;" arabic-form="initial" d="M0 0zM61 225q151 0 331 83q-65 13 -146 87q-110 101 -110 246q0 271 228 379q160 76 425 97v-239q-198 -23 -311 -90q-74 -45 -74 -114q0 -75 88 -158q56 -53 183 -53q51 0 129 33l213 90v-266l-420 -197q-262 -123 -528 -123h-89v225h81zM375 1425h225v-225h-225v225z " />
<glyph unicode="&#x63a;" arabic-form="medial" d="M0 0zM798 303q87 -72 236 -78h219v-225h-369q-104 0 -270 132q-162 -132 -266 -132h-368v225h218q139 6 232 73q-86 86 -155 176q-30 39 -30 84q0 72 36 118q42 54 127 91q106 45 208 45q105 0 208 -45q97 -43 129 -88q36 -50 34 -121q-1 -51 -30 -84q-83 -94 -159 -171z M616 443q81 78 81 94q0 24 -25 33q-20 7 -56 7q-40 0 -56 -7q-25 -11 -25 -33q0 -16 81 -94zM508 1175h225v-225h-225v225z" />
<glyph unicode="&#x641;" arabic-form="isolated" d="M952 492q20 30 20 68q0 45 -44 80q-31 25 -75 24q-59 -1 -92 -43q-23 -30 -23 -61q0 -66 37 -91q38 -25 82 -25q63 0 95 48zM1108 56q-77 -94 -316 -148q-178 -40 -343 -40q-154 0 -277 41q-275 91 -278 405q-1 138 34 230h288q-36 -94 -36 -230q0 -127 120 -172 q90 -34 149 -34q129 0 243 24q101 21 156 60q51 41 64 60q-31 -16 -98 -16q-146 0 -238 72q-124 97 -124 232q0 99 16 140q45 115 164 168q113 50 211 50q96 0 185 -40q77 -35 170 -171q35 -52 35 -191q0 -286 -125 -440zM732 1291h225v-225h-225v225z" />
<glyph unicode="&#x641;" arabic-form="final" d="M0 0zM884 26q-29 -23 -156 -60q-216 -62 -330 -62q-196 0 -328 54q-248 102 -248 356q0 136 31 231h266q-33 -129 -33 -231q0 -106 116 -152q71 -30 202 -30q85 0 240 60q-47 25 -114 110q-85 106 -85 192q0 111 20 154q43 92 162 147q101 47 219 47q151 0 234 -50 q109 -67 128 -100q40 -70 40 -218q0 -128 -90 -248h16h79v-226h-154q-135 0 -215 26zM883 297q87 65 87 163q0 34 -5 62q-5 36 -39 60q-34 25 -74 25q-24 0 -46 -10q-55 -28 -70 -71q-6 -20 -6 -38q0 -42 21 -76q49 -78 132 -115zM736 1184h225v-225h-225v225z" />
<glyph unicode="&#x641;" arabic-form="initial" d="M0 0zM560 583q24 26 24 72q0 37 -39 66q-20 14 -45 14q-30 0 -56 -25q-24 -27 -24 -56q0 -48 33 -70q24 -15 49 -15q43 0 58 14zM-20 225h241q237 0 291 31q69 40 83 56q38 44 21 76q-24 -35 -135 -35q-173 0 -257 67q-98 81 -98 216q0 45 8 96q23 148 173 217 q78 36 203 36q132 0 210 -50q59 -38 112 -123q49 -79 49 -192q0 -256 -69 -400q-49 -107 -257 -181q-109 -39 -254 -39h-321v225zM375 1395h225v-225h-225v225z" />
<glyph unicode="&#x641;" arabic-form="medial" d="M0 0zM788 816q148 -52 184 -140q27 -61 24 -195q-1 -58 -22 -122q-14 -43 -102 -115q42 -19 156 -19h225v-225h-315q-136 0 -322 57q-184 -57 -320 -57h-316v225h226q119 0 154 15q-61 25 -102 119q-20 46 -20 122q0 127 43 199q63 104 151 132q84 25 186 25 q110 0 170 -21zM616 610q-31 0 -47 -13q-25 -20 -37 -43q-20 -39 -20 -66q0 -35 24 -63q43 -50 80 -69q34 23 72 69q24 29 24 63q0 36 -13 67q-12 25 -43 45q-15 10 -40 10zM492 1225h225v-225h-225v225z" />
<glyph unicode="&#x642;" arabic-form="isolated" d="M873 552q41 30 41 105q0 35 -32 74t-85 39q-44 -1 -73 -32q-33 -36 -34 -82q0 -61 26 -86q44 -42 85 -42q39 0 72 24zM522 -196q202 0 308 154q140 204 140 354q-36 -34 -190 -34q-131 0 -236 70q-148 99 -148 288q0 56 8 96q43 206 222 288q84 38 183 38q162 0 243 -72 q95 -84 138 -186t43 -336q0 -241 -46 -394q-78 -255 -222 -395q-151 -147 -420 -147q-221 1 -383 116q-162 117 -162 392q0 214 48 340h284q-53 -191 -54 -284q-1 -122 54 -196q68 -92 190 -92zM865 1425h225v-225h-225v225zM515 1425h225v-225h-225v225z" />
<glyph unicode="&#x642;" arabic-form="final" d="M0 0zM908 10q-86 8 -148 18q-168 31 -263 136q-106 117 -106 236q0 94 50 198q26 54 120 110q107 64 239 64q144 0 180 -17q108 -54 142 -150q36 -97 43 -380q27 -1 30 -1l58 1v-225l-63 -1h-48q-14 -122 -64 -204q-92 -148 -246 -223q-132 -64 -387 -64q-322 0 -413 192 q-51 109 -51 263q0 122 35 262h276q-42 -170 -42 -270q0 -81 50 -157q45 -70 190 -70q126 0 220 60q120 76 198 222zM932 240q3 107 -12 180q-11 53 -47 79q-33 25 -69 24q-35 0 -55 -10q-49 -23 -57 -45q-15 -38 -15 -75q0 -41 47 -80q29 -26 100 -51q66 -23 108 -22z M832 1131h225v-225h-225v225zM482 1131h225v-225h-225v225z" />
<glyph unicode="&#x642;" arabic-form="initial" d="M0 0zM560 1375h225v-225h-225v225zM210 1375h225v-225h-225v225zM560 583q24 26 24 72q0 37 -39 66q-20 14 -45 14q-30 0 -56 -25q-24 -27 -24 -56q0 -48 33 -70q24 -15 49 -15q43 0 58 14zM-20 225h241q237 0 291 31q69 40 83 56q38 44 21 76q-24 -35 -135 -35 q-173 0 -257 67q-98 81 -98 216q0 45 8 96q23 148 173 217q78 36 203 36q132 0 210 -50q59 -38 112 -123q49 -79 49 -192q0 -256 -69 -400q-49 -107 -257 -181q-109 -39 -254 -39h-321v225z" />
<glyph unicode="&#x642;" arabic-form="medial" d="M0 0zM676 1225h225v-225h-225v225zM326 1225h225v-225h-225v225zM788 816q148 -52 184 -140q27 -61 24 -195q-1 -58 -22 -122q-14 -43 -102 -115q42 -19 156 -19h225v-225h-315q-136 0 -322 57q-184 -57 -320 -57h-316v225h226q119 0 154 15q-61 25 -102 119 q-20 46 -20 122q0 127 43 199q63 104 151 132q84 25 186 25q110 0 170 -21zM616 610q-31 0 -47 -13q-25 -20 -37 -43q-20 -39 -20 -66q0 -35 24 -63q43 -50 80 -69q34 23 72 69q24 29 24 63q0 36 -13 67q-12 25 -43 45q-15 10 -40 10z" />
<glyph unicode="&#x643;" arabic-form="isolated" d="M8 0zM635 1138v-120q-80 -4 -112 -18q-69 -28 -69 -63q0 -13 28 -37q16 -14 58 -18q144 -15 144 -148q0 -113 -106 -162q-88 -41 -187 -41q-66 0 -122 11v128q68 -10 113 -10q69 0 117 26q32 17 32 42q0 34 -47 42q-89 15 -124 49q-58 56 -58 125q0 102 94 148 q83 38 239 46zM884 281q52 75 52 330v945h279v-945q0 -400 -86 -489q-132 -138 -197 -162q-152 -53 -371 -54q-176 -1 -336 54q-217 76 -217 300q0 75 16 128h273q-15 -62 -14 -102q2 -78 135 -129q70 -27 138 -27q136 0 218 54q80 53 110 97z" />
<glyph unicode="&#x643;" arabic-form="final" d="M527 1138v-120q-80 -4 -112 -18q-69 -28 -69 -63q0 -13 28 -37q16 -14 58 -18q144 -15 144 -148q0 -113 -106 -162q-88 -41 -187 -41q-66 0 -122 11v128q68 -10 113 -10q69 0 117 26q32 17 32 42q0 34 -47 42q-89 15 -124 49q-58 56 -58 125q0 102 94 148q83 38 239 46z M1107 1556v-1173q0 -65 49 -113q44 -44 57 -44h59v-226h-114q-87 0 -164 84q-76 -84 -170 -124q-128 -53 -371 -54q-176 -1 -336 54q-217 76 -217 300q0 75 16 128h273q-15 -62 -14 -102q2 -78 135 -129q70 -27 138 -27q136 0 218 54q80 53 110 97q52 75 52 330v945h279z " />
<glyph unicode="&#x643;" arabic-form="initial" d="M402 0h-422v225h402q152 0 193 92q16 36 16 72q0 40 -54 106l-257 315q-114 139 -114 210q0 30 10 68q29 109 146 158l745 310v-268l-506 -204q-94 -37 -89 -79q4 -37 78 -125l222 -265q102 -121 102 -246q0 -113 -62 -214q-94 -155 -410 -155z" />
<glyph unicode="&#x643;" arabic-form="medial" d="M816 164l-24 -34q-86 -130 -372 -130h-450v225h430q152 0 193 92q16 36 16 72q0 40 -54 106l-257 315q-114 139 -114 210q0 30 10 68q29 109 146 158l745 310v-268l-506 -204q-94 -37 -89 -79q4 -36 78 -125l496 -598q21 -26 60 -40q44 -16 100 -16h46v-226h-82 q-225 0 -305 89z" />
<glyph unicode="&#x644;" arabic-form="isolated" d="M0 0zM845 73q30 105 30 353v1130h288v-1130q0 -273 -50 -456q-48 -175 -202 -267q-121 -72 -351 -73q-252 0 -360 75q-197 137 -200 370q-1 138 35 230h302q-48 -115 -48 -230q0 -106 96 -155q85 -43 175 -43q107 0 177 45q79 51 108 151z" />
<glyph unicode="&#x644;" arabic-form="final" d="M1088 1556v-1173q0 -75 51 -114q57 -44 87 -44h48v-225h-103q-76 0 -116 55q-14 -98 -45 -165q-53 -115 -174 -187t-351 -73q-250 -1 -360 75q-198 138 -200 370q-1 138 35 230h302q-48 -115 -48 -230q0 -106 96 -155q85 -43 175 -43q107 0 177 45q79 51 108 151 q30 105 30 353v1130h288z" />
<glyph unicode="&#x644;" arabic-form="initial" d="M1050 412q0 -219 -86 -320q-80 -92 -402 -92h-582v225h474q218 0 262 44q48 49 48 155v1132h286v-1144z" />
<glyph unicode="&#x644;" arabic-form="medial" d="M606 72q-64 -72 -291 -72h-335v225h228q161 0 205 44q49 50 49 155v1132h290v-1132q0 -106 49 -155q44 -44 207 -44h245v-225h-353q-227 0 -294 72z" />
<glyph unicode="&#x645;" arabic-form="isolated" d="M60 0zM652 295l112 -27q49 0 65 22q38 55 35 76q-5 38 -6 44q-4 25 -34 50q-32 27 -80 27q-52 0 -72 -39q-30 -58 -30 -84q0 -16 10 -69zM480 93q-89 38 -114 12t-25 -105v-492h-281v492q0 199 120 301q65 55 184 55q-2 42 -2 58q0 151 126 254q77 63 246 63 q96 0 194 -39q186 -72 216 -247q8 -45 8 -101q0 -172 -124 -260q-95 -68 -226 -69q-137 -2 -322 78z" />
<glyph unicode="&#x645;" arabic-form="final" d="M1092 289q3 -43 56 -55q40 -9 74 -9h31v-225h-86q-139 0 -171 51q-15 -14 -28 -22q-110 -68 -226 -69q-137 -2 -322 78q-89 38 -114 12t-25 -105v-437h-281v437q0 199 120 301q65 55 184 55q-2 42 -2 58q0 151 126 254q77 63 246 63q96 0 194 -39q186 -74 216 -247 q1 -10 8 -101zM592 240l112 -27q49 0 65 22q38 55 35 76q-5 38 -6 44q-4 25 -34 50q-32 27 -80 27q-52 0 -72 -39q-30 -58 -30 -84q0 -16 10 -69z" />
<glyph unicode="&#x645;" arabic-form="initial" d="M563 232q49 -21 112 -28q49 0 65 22q38 55 35 76q-5 38 -6 44q-4 25 -34 50q-32 28 -80 28q-52 -1 -72 -40q-30 -57 -30 -84q0 -16 10 -68zM390 60q-34 -23 -108 -42q-64 -18 -222 -18h-90v225h90q168 -14 213 125q29 158 126 254q65 64 246 64q96 0 194 -40 q186 -72 216 -246q8 -46 8 -102q0 -172 -124 -260q-97 -68 -226 -68q-218 0 -323 108z" />
<glyph unicode="&#x645;" arabic-form="medial" d="M512 232q49 -21 112 -28q49 0 65 22q38 55 35 76q-5 38 -6 44q-4 25 -34 50q-32 28 -80 28q-52 -1 -72 -40q-30 -57 -30 -84q0 -16 10 -68zM912 32q-133 -80 -250 -80q-218 0 -323 108q-34 -23 -107 -42q-65 -18 -172 -18h-90v225h90q131 0 162 125q43 174 126 254 q65 64 246 64q96 0 194 -40q186 -74 216 -246q12 -71 56 -126q25 -31 93 -31h100v-225h-155q-166 0 -186 32z" />
<glyph unicode="&#x646;" arabic-form="isolated" d="M1200 255q0 -214 -84 -363q-60 -106 -212 -176q-102 -47 -321 -47q-164 0 -295 63q-269 128 -269 394q0 172 49 354h288q-38 -141 -40 -316q-2 -131 124 -204q76 -44 143 -44q105 0 147 20q114 54 150 157q34 98 34 194q0 301 -46 401h292q40 -159 40 -433zM439 983h225 v-225h-225v225z" />
<glyph unicode="&#x646;" arabic-form="final" d="M0 0zM1093 16q-12 -166 -81 -288q-60 -106 -212 -176q-102 -47 -321 -47q-164 0 -295 63q-269 130 -269 394q0 172 49 354h288q-38 -141 -40 -316q-2 -131 124 -204q76 -44 143 -44q105 0 147 20q114 54 150 157q34 98 34 194q0 301 -46 401h292q10 -32 23 -148 q7 -56 53 -120q22 -31 70 -31h52v-225h-94q-62 0 -67 16zM335 782h225v-225h-225v225z" />
<glyph unicode="&#x646;" arabic-form="initial" d="M0 0zM488 1075h225v-225h-225v225zM658 86q-72 -86 -465 -86h-229v225h174q235 0 279 44q49 49 49 155v176h284v-176q0 -228 -92 -338z" />
<glyph unicode="&#x646;" arabic-form="medial" d="M0 0zM497 1075h225v-225h-225v225zM606 72q-64 -72 -291 -72h-347v225h240q161 0 205 44q49 49 49 155v217h290v-217q0 -106 49 -155q44 -44 207 -44h257v-225h-365q-227 0 -294 72z" />
<glyph unicode="&#x647;" arabic-form="isolated" d="M176 0zM553 487q-46 0 -69 -61q-18 -49 -18 -135q1 -57 40 -88t79 -31q64 0 129 40q53 32 53 92q0 54 -47 99q-86 84 -167 84zM490 734q248 0 430 -160q141 -124 141 -272q-1 -200 -148 -280q-148 -81 -347 -80q-142 0 -223 35q-167 74 -167 313q0 178 37 259 q84 185 277 185z" />
<glyph unicode="&#x647;" arabic-form="final" d="M665 360q-15 42 -28 91q-13 50 -25 151q-102 -13 -162 -63q-107 -92 -106 -142q3 -82 124 -83q92 0 197 46zM595 810q-4 39 -7 82h280q2 -205 34 -365q26 -124 82 -203q70 -99 156 -99h113v-225h-232q-110 0 -149 52l-76 102q-138 -73 -294 -73q-24 0 -114 15 q-302 50 -302 267q0 209 249 364q109 68 260 83z" />
<glyph unicode="&#x647;" arabic-form="initial" d="M717 284q-35 -80 -99 -136q32 -16 80 -17q109 0 125 67q7 30 7 63q0 30 -33 108q-16 39 -50 84q2 -95 -30 -169zM283 773q-40 12 -61 15v232q307 -59 540 -262q237 -209 299 -439q14 -52 14 -109q0 -114 -61 -184q-101 -113 -308 -113q-102 0 -196 35q-69 26 -130 69 q-83 -17 -225 -17h-175v225h145q42 0 79 4q-34 67 -50 140q-18 81 -18 142q0 69 42 151q37 72 105 111zM443 324q17 17 29 36q39 60 39 133q0 28 -15 75q-12 38 -40 38q-32 0 -48 -31q-22 -43 -22 -70q0 -30 7 -67q10 -53 50 -114z" />
<glyph unicode="&#x647;" arabic-form="medial" d="M508 0q0 -117 38 -189q69 -132 125 -132q58 0 58 103q0 62 -69 139q-71 79 -133 79h-19zM1253 0h-345q92 -117 92 -219q0 -139 -68 -224q-77 -96 -257 -96q-167 0 -263 112q-76 92 -116 188q-50 119 -56 239h-260v225h260q6 120 56 239q40 96 116 188q96 112 263 112 q180 0 257 -96q68 -85 68 -224q0 -102 -92 -219h345v-225zM508 225h19q62 0 133 79q69 77 69 139q0 103 -58 103q-56 0 -125 -132q-38 -72 -38 -189z" />
<glyph unicode="&#x648;" arabic-form="isolated" d="M76 0zM763 422q-54 0 -79 -35q-24 -33 -24 -69q0 -42 76 -70q60 -23 160 -23q0 131 -60 172q-37 25 -73 25zM1171 184q0 -285 -172 -468q-79 -84 -179 -130q-188 -86 -744 -86v244q465 0 576 60q188 102 229 199q-51 0 -163 10q-146 13 -236 67q-116 72 -116 235 q0 247 211 337q57 24 165 24q185 0 257 -51q126 -91 155 -263q17 -102 17 -178z" />
<glyph unicode="&#x648;" arabic-form="final" d="M687 422q-54 0 -79 -35q-24 -33 -24 -69q0 -42 76 -70q60 -23 160 -23q0 131 -60 172q-37 25 -73 25zM1075 0q-39 -164 -152 -284q-79 -84 -179 -130q-188 -86 -744 -86v244q465 0 576 60q188 102 229 199q-51 0 -163 10q-146 13 -236 67q-116 70 -116 235q0 247 211 337 q57 24 165 24q185 0 257 -51q126 -89 155 -263q13 -75 16 -137h159v-225h-178z" />
<glyph unicode="&#x649;" arabic-form="isolated" d="M0 0zM1180 -49q-104 -151 -208 -209q-164 -92 -453 -92q-198 0 -319 60q-200 99 -200 412q0 117 63 230h283q-66 -131 -64 -230q2 -159 91 -182q75 -20 158 -20q139 0 228 35q86 34 130 91q52 66 53 117q0 47 -16 73q-34 54 -142 70q-228 32 -226 273q2 176 123 246 q104 60 219 60q227 0 279 -99q54 -105 54 -222h-269q0 60 -14 74q-37 35 -71 34q-25 -1 -51 -26q-28 -30 -28 -60q0 -75 125 -100q194 -39 276 -179q32 -55 32 -152q0 -126 -53 -204z" />
<glyph unicode="&#x649;" arabic-form="final" d="M743 36q0 25 -17 40q-20 17 -55 53q-47 48 -47 146q0 106 49 173q47 65 125 92q44 15 140 14q86 0 150 -50q73 -58 95 -148q30 -131 58 -131h12v-225h-35q-172 0 -216 172q-43 170 -94 165q-13 -1 -24 -15q-14 -18 -14 -36q0 -12 42 -54q76 -76 76 -184q0 -146 -62 -206 q-75 -72 -186 -123q-154 -71 -311 -71q-122 0 -268 36q-223 56 -240 334q-6 92 30 230h280q-26 -80 -26 -196q1 -110 110 -132q60 -12 112 -13q57 0 159 22q44 10 103 47q54 35 54 60z" />
<glyph unicode="&#x64a;" arabic-form="isolated" d="M0 0zM629 -436h225v-225h-225v225zM279 -436h225v-225h-225v225zM1180 -49q-104 -151 -208 -209q-164 -92 -453 -92q-198 0 -319 60q-200 99 -200 412q0 117 63 230h283q-66 -131 -64 -230q2 -159 91 -182q75 -20 158 -20q139 0 228 35q86 34 130 91q52 66 53 117 q0 47 -16 73q-34 54 -142 70q-228 32 -226 273q2 176 123 246q104 60 219 60q227 0 279 -99q54 -105 54 -222h-269q0 60 -14 74q-37 35 -71 34q-25 -1 -51 -26q-28 -30 -28 -60q0 -75 125 -100q194 -39 276 -179q32 -55 32 -152q0 -126 -53 -204z" />
<glyph unicode="&#x64a;" arabic-form="final" d="M0 0zM522 -443h225v-225h-225v225zM172 -443h225v-225h-225v225zM743 36q0 25 -17 40q-20 17 -55 53q-47 48 -47 146q0 106 49 173q47 65 125 92q44 15 140 14q86 0 150 -50q73 -58 95 -148q30 -131 58 -131h12v-225h-35q-172 0 -216 172q-43 170 -94 165q-13 -1 -24 -15 q-14 -18 -14 -36q0 -12 42 -54q76 -76 76 -184q0 -146 -62 -206q-75 -72 -186 -123q-154 -71 -311 -71q-122 0 -268 36q-223 56 -240 334q-6 92 30 230h280q-26 -80 -26 -196q1 -110 110 -132q60 -12 112 -13q57 0 159 22q44 10 103 47q54 35 54 60z" />
<glyph unicode="&#x64a;" arabic-form="initial" d="M0 0zM658 86q-72 -86 -465 -86h-229v225h174q235 0 279 44q49 49 49 155v176h284v-176q0 -228 -92 -338zM656 -135h225v-225h-225v225zM306 -135h225v-225h-225v225z" />
<glyph unicode="&#x64a;" arabic-form="medial" d="M0 0zM606 72q-64 -72 -291 -72h-347v225h240q161 0 205 44q49 49 49 155v217h290v-217q0 -106 49 -155q44 -44 207 -44h257v-225h-365q-227 0 -294 72zM669 -139h225v-225h-225v225zM319 -139h225v-225h-225v225z" />
<glyph unicode="&#xd;" />
<glyph unicode=" " />
<glyph unicode="!" d="M483 283h267v-283h-267v283zM483 1493h267v-655l-33 -357h-199l-35 357v655z" />
<glyph unicode="&#x22;" d="M999 1493v-555h-256v555h256zM487 1493v-555h-256v555h256z" />
<glyph unicode="#" d="M707 1470l-95 -374h203l94 374h224l-97 -374h193v-215h-246l-74 -293h205v-215h-258l-94 -373h-221l94 373h-205l-94 -373h-221l94 373h-207v215h260l74 293h-219v215h274l94 374h222zM762 881h-205l-74 -293h205z" />
<glyph unicode="$" d="M694 528v-302q63 9 98 48.5t35 100.5q0 62 -34.5 101.5t-98.5 51.5zM553 817v283q-62 -8 -93.5 -41.5t-31.5 -91.5q0 -57 31.5 -95t93.5 -55zM694 -301h-141l-1 301q-87 3 -182 26t-198 66v262q103 -61 199.5 -94t181.5 -34v329q-197 39 -293 134.5t-96 252.5 q0 167 102 266t287 111v237h141l1 -237q71 -4 147.5 -18t156.5 -39v-256q-62 40 -138 64t-167 30v-307q197 -31 297.5 -134.5t100.5 -275.5q0 -164 -108.5 -269t-288.5 -114z" />
<glyph unicode="%" d="M33 1112q0 134 93 227t226 93t226.5 -93.5t93.5 -226.5t-93.5 -226t-226.5 -93t-226 92.5t-93 226.5zM352 1249q-57 0 -97 -39.5t-40 -97.5t40 -97.5t97 -39.5q58 0 97.5 39.5t39.5 97.5q0 57 -40 97t-97 40zM86 561l1042 418l41 -96l-1048 -418zM580 319q0 134 92.5 227 t226.5 93q132 0 226 -93.5t94 -226.5q0 -132 -94 -225.5t-226 -93.5q-134 0 -226.5 92.5t-92.5 226.5zM897 457q-56 0 -95.5 -40t-39.5 -98t39 -97.5t96 -39.5q58 0 98.5 40t40.5 97t-41 97.5t-98 40.5z" />
<glyph unicode="&#x26;" d="M870 72q-75 -50 -159.5 -75.5t-171.5 -25.5q-224 0 -363 131t-139 340q0 145 70.5 264t209.5 207q-50 78 -74 144.5t-24 126.5q0 162 109 249t315 87q73 0 143 -11t138 -32v-256q-64 36 -129.5 54.5t-130.5 18.5q-80 0 -121 -28t-41 -82q0 -36 30.5 -99t98.5 -165 l313 -480q21 38 32 87t11 106q0 30 -2 58.5t-6 53.5h235v-51q0 -145 -34 -253.5t-107 -194.5l162 -246h-317zM440 731q-66 -43 -99.5 -102.5t-33.5 -132.5q0 -122 78.5 -205.5t192.5 -83.5q28 0 57.5 6.5t57.5 18.5l8 4q29 14 47 26z" />
<glyph unicode="'" d="M743 1493v-555h-256v555h256z" />
<glyph unicode="(" d="M924 1554q-132 -239 -196 -463t-64 -448q0 -222 64 -447.5t196 -465.5h-228q-159 231 -236 455.5t-77 457.5q0 232 77.5 457.5t235.5 453.5h228z" />
<glyph unicode=")" d="M309 1554h228q158 -228 235.5 -453.5t77.5 -457.5q0 -233 -77 -457.5t-236 -455.5h-228q132 240 196 465.5t64 447.5q0 224 -64 448t-196 463z" />
<glyph unicode="*" d="M1108 1217l-330 -173l330 -174l-76 -141l-332 184v-344h-172v344l-331 -184l-76 141l332 174l-332 173l76 141l331 -182v344h172v-344l332 182z" />
<glyph unicode="+" d="M735 1192v-430h430v-238h-430v-432h-237v432h-432v238h432v430h237z" />
<glyph unicode="," d="M461 367h313v-271l-196 -383h-216l99 383v271z" />
<glyph unicode="-" d="M301 735h631v-291h-631v291z" />
<glyph unicode="." d="M449 367h333v-367h-333v367z" />
<glyph unicode="/" d="M899 1493h221l-786 -1683h-221z" />
<glyph unicode="0" d="M492 745q0 53 36 89t88 36q53 0 89 -36t36 -89q0 -52 -36 -88t-89 -36q-52 0 -88 35.5t-36 88.5zM616 1270q-102 0 -149 -125t-47 -400q0 -274 47 -399t149 -125q103 0 150 125t47 399q0 275 -47 400t-150 125zM123 745q0 388 123 581.5t370 193.5q248 0 371 -193 t123 -582q0 -388 -123 -581t-371 -193q-247 0 -370 193.5t-123 580.5z" />
<glyph unicode="1" d="M188 260h330v969l-307 -76v266l309 74h285v-1233h330v-260h-947v260z" />
<glyph unicode="2" d="M434 260h629v-260h-948v252l160 170q285 303 346 373q75 86 108 152.5t33 131.5q0 100 -60.5 154.5t-171.5 54.5q-79 0 -177.5 -31.5t-205.5 -91.5v275q107 39 209.5 59.5t196.5 20.5q237 0 372.5 -110.5t135.5 -301.5q0 -88 -29.5 -165t-101.5 -171q-53 -68 -291 -306 q-129 -129 -205 -206z" />
<glyph unicode="3" d="M549 668h-158v260h158q110 0 170.5 43.5t60.5 122.5q0 83 -60.5 129.5t-170.5 46.5q-84 0 -180 -21t-199 -61v268q103 31 203 47.5t192 16.5q236 0 368 -103t132 -284q0 -133 -76 -217.5t-217 -110.5q160 -28 244 -127.5t84 -261.5q0 -217 -139 -331t-404 -114 q-113 0 -222.5 19t-209.5 55v274q94 -47 203 -71.5t229 -24.5t190 55.5t70 149.5q0 115 -70 177.5t-198 62.5z" />
<glyph unicode="4" d="M694 1165l-377 -590h377v590zM668 1493h309v-918h164v-253h-164v-322h-283v322h-592v286z" />
<glyph unicode="5" d="M193 1493h811v-260h-572v-277q36 14 77 20.5t87 6.5q222 0 360 -140t138 -364q0 -235 -149.5 -371.5t-407.5 -136.5q-96 0 -194 16t-200 48v266q83 -41 170.5 -61.5t175.5 -20.5q156 0 237 66.5t81 193.5q0 117 -80.5 187.5t-214.5 70.5q-79 0 -158.5 -19.5t-160.5 -58.5 v834z" />
<glyph unicode="6" d="M643 748q-96 0 -146.5 -69.5t-50.5 -201.5q0 -131 50.5 -200.5t146.5 -69.5t147.5 69.5t51.5 200.5t-51.5 201t-147.5 70zM1030 1458v-268q-79 45 -151.5 67.5t-139.5 22.5q-160 0 -243.5 -107.5t-87.5 -317.5q47 65 120 97.5t172 32.5q202 0 312 -127.5t110 -361.5 q0 -251 -123.5 -389t-347.5 -138q-273 0 -396.5 183t-123.5 591q0 388 151 581.5t453 193.5q70 0 144.5 -15t150.5 -45z" />
<glyph unicode="7" d="M135 1493h944v-209l-506 -1284h-301l486 1233h-623v260z" />
<glyph unicode="8" d="M616 666q-99 0 -160 -62.5t-61 -165.5t61 -166t160 -63t160.5 64t61.5 165q0 103 -61 165.5t-161 62.5zM397 791q-113 39 -172 122.5t-59 204.5q0 186 121 294t329 108q209 0 330 -108t121 -294q0 -120 -58 -203.5t-169 -123.5q124 -38 194 -136t70 -235 q0 -215 -127 -332t-361 -117q-233 0 -360 117t-127 332q0 138 71 236t197 135zM428 1094q0 -88 50.5 -139.5t137.5 -51.5q88 0 138.5 51.5t50.5 139.5q0 87 -50.5 137.5t-138.5 50.5q-86 0 -137 -51t-51 -137z" />
<glyph unicode="9" d="M203 20v269q79 -46 151.5 -68t139.5 -22q159 0 242.5 106.5t88.5 318.5q-47 -65 -120 -97.5t-173 -32.5q-201 0 -311 127.5t-110 361.5q0 250 123 387t348 137q273 0 396.5 -182.5t123.5 -589.5q0 -387 -151 -580.5t-453 -193.5q-70 0 -144.5 15t-150.5 44zM590 741 q95 0 145.5 69.5t50.5 201.5q0 131 -50.5 200.5t-145.5 69.5q-96 0 -147.5 -69.5t-51.5 -200.5t51.5 -201t147.5 -70z" />
<glyph unicode=":" d="M449 1063h333v-365h-333v365zM449 367h333v-367h-333v367z" />
<glyph unicode=";" d="M449 367h333v-271l-196 -383h-215l78 383v271zM449 1063h333v-365h-333v365z" />
<glyph unicode="&#x3c;" d="M1145 926l-795 -285l795 -283v-249l-1057 415v236l1057 416v-250z" />
<glyph unicode="=" d="M88 532h1057v-237h-1057v237zM88 987h1057v-235h-1057v235z" />
<glyph unicode="&#x3e;" d="M88 926v250l1057 -416v-236l-1057 -415v249l795 283z" />
<glyph unicode="?" d="M440 283h267v-283h-267v283zM707 401h-267v154q0 99 31 169t111 148l90 89q63 61 85.5 101t22.5 83q0 67 -46 101t-138 34q-84 0 -175.5 -35.5t-187.5 -105.5v268q98 56 198.5 84.5t201.5 28.5q202 0 317 -94t115 -259q0 -76 -34 -141.5t-128 -157.5l-88 -86 q-68 -66 -87 -108t-19 -103q0 -9 -0.5 -21t-1.5 -26v-123z" />
<glyph unicode="@" d="M973 545q0 113 -51 177t-140 64t-139.5 -64t-50.5 -177q0 -114 50.5 -178t139.5 -64t140 64t51 178zM1159 135h-196v82q-38 -53 -89.5 -77.5t-123.5 -24.5q-164 0 -264.5 118t-100.5 312q0 193 100 310.5t265 117.5q71 0 125 -24.5t88 -71.5v41q0 136 -74.5 210 t-212.5 74q-208 0 -339.5 -183t-131.5 -476q0 -307 152 -488.5t405 -181.5q80 0 155 23.5t144 70.5l92 -176q-81 -55 -176.5 -82.5t-204.5 -27.5q-350 0 -558 233t-208 629q0 387 187 619.5t495 232.5q218 0 344.5 -131.5t126.5 -358.5v-770z" />
<glyph unicode="A" d="M616 1223l-139 -611h279zM436 1493h361l403 -1493h-295l-92 369h-395l-90 -369h-295z" />
<glyph unicode="B" d="M410 678v-442h196q141 0 197.5 48t56.5 167q0 121 -59 174t-195 53h-196zM410 1260v-347h196q112 0 159.5 40t47.5 132t-48.5 133.5t-158.5 41.5h-196zM125 1495h481q249 0 374.5 -94.5t125.5 -282.5q0 -144 -74 -225t-217 -94q171 -17 257.5 -115t86.5 -274 q0 -216 -130 -313t-423 -97h-481v1495z" />
<glyph unicode="C" d="M1081 43q-70 -36 -147 -54t-162 -18q-302 0 -461 199t-159 575q0 377 159 576t461 199q85 0 163 -18t146 -54v-328q-76 70 -147.5 102.5t-147.5 32.5q-162 0 -244.5 -128.5t-82.5 -381.5q0 -252 82.5 -380.5t244.5 -128.5q76 0 147.5 32.5t147.5 102.5v-328z" />
<glyph unicode="D" d="M432 1227v-961h80q174 0 248 109.5t74 372.5q0 261 -74 370t-248 109h-80zM137 1493h316q366 0 527 -174.5t161 -570.5q0 -397 -161 -572.5t-527 -175.5h-316v1493z" />
<glyph unicode="E" d="M1098 0h-930v1493h930v-260h-635v-322h575v-260h-575v-391h635v-260z" />
<glyph unicode="F" d="M1112 1233h-635v-322h578v-260h-578v-651h-295v1493h930v-260z" />
<glyph unicode="G" d="M872 270v285h-202v248h460v-684q-85 -73 -187.5 -110.5t-219.5 -37.5q-290 0 -448 201.5t-158 572.5q0 377 159.5 576t460.5 199q90 0 177 -25.5t163 -73.5v-327q-62 80 -142.5 120.5t-176.5 40.5q-168 0 -251 -126.5t-83 -383.5q0 -249 80 -379t233 -130q46 0 80 8.5 t55 25.5z" />
<glyph unicode="H" d="M137 1493h295v-569h369v569h295v-1493h-295v664h-369v-664h-295v1493z" />
<glyph unicode="I" d="M172 1233v260h889v-260h-297v-973h297v-260h-889v260h297v973h-297z" />
<glyph unicode="J" d="M109 74v342q86 -88 183.5 -134t196.5 -46q116 0 170 58t54 185v754h-361v260h656v-1014q0 -273 -114.5 -390.5t-377.5 -117.5q-95 0 -198.5 26t-208.5 77z" />
<glyph unicode="K" d="M117 1493h295v-590l462 590h334l-471 -588l488 -905h-328l-354 672l-131 -166v-506h-295v1493z" />
<glyph unicode="L" d="M225 0v1493h295v-1233h631v-260h-926z" />
<glyph unicode="M" d="M86 1493h352l178 -655l177 655h354v-1493h-254v1196l-158 -653h-235l-160 653v-1196h-254v1493z" />
<glyph unicode="N" d="M119 1493h317l416 -1085v1085h260v-1493h-315l-418 1085v-1085h-260v1493z" />
<glyph unicode="O" d="M616 1255q-113 0 -165 -120.5t-52 -389.5q0 -268 52 -388.5t165 -120.5q114 0 166 120.5t52 388.5q0 269 -52 389.5t-166 120.5zM92 745q0 383 132.5 579t391.5 196q260 0 392.5 -196t132.5 -579q0 -382 -132.5 -578t-392.5 -196q-259 0 -391.5 196t-132.5 578z" />
<glyph unicode="P" d="M457 1245v-438h121q145 0 203.5 49t58.5 170t-58.5 170t-203.5 49h-121zM162 1493h405q309 0 444.5 -110t135.5 -357t-135.5 -357t-444.5 -110h-110v-559h-295v1493z" />
<glyph unicode="Q" d="M656 -23q-14 -3 -23.5 -4.5t-18.5 -1.5q-257 0 -389.5 196t-132.5 578q0 383 132.5 579t391.5 196q260 0 392.5 -196t132.5 -579q0 -263 -63 -440.5t-183 -253.5l186 -182l-202 -150zM616 1255q-113 0 -165 -120.5t-52 -389.5q0 -268 52 -388.5t165 -120.5 q114 0 166 120.5t52 388.5q0 269 -52 389.5t-166 120.5z" />
<glyph unicode="R" d="M807 705q44 -9 76.5 -41.5t79.5 -126.5l270 -537h-324l-180 377q-8 16 -21 44q-79 169 -186 169h-94v-590h-295v1493h426q288 0 413.5 -102t125.5 -332q0 -154 -75 -245t-216 -109zM428 1245v-407h139q121 0 173.5 47.5t52.5 156.5t-52 156t-174 47h-139z" />
<glyph unicode="S" d="M510 655q-223 85 -302 178.5t-79 251.5q0 203 130 319t357 116q103 0 206 -23.5t204 -69.5v-288q-95 67 -193 102t-194 35q-107 0 -164 -43t-57 -123q0 -62 41.5 -102.5t173.5 -89.5l127 -48q180 -66 265 -175t85 -275q0 -226 -133.5 -337.5t-403.5 -111.5 q-111 0 -222.5 26.5t-215.5 78.5v305q118 -84 228.5 -125t218.5 -41q109 0 169 49.5t60 138.5q0 67 -40 117.5t-116 79.5z" />
<glyph unicode="T" d="M764 0h-295v1235h-379v258h1053v-258h-379v-1235z" />
<glyph unicode="U" d="M106 551v942h295v-1016q0 -112 57 -175.5t158 -63.5t158 63.5t57 175.5v1016h295v-942q0 -304 -121 -442t-389 -138q-267 0 -388.5 138t-121.5 442z" />
<glyph unicode="V" d="M616 246l263 1247h297l-355 -1493h-409l-355 1493h297z" />
<glyph unicode="W" d="M0 1493h258l107 -1096l129 709h245l150 -709l84 1096h260l-172 -1493h-275l-170 784l-159 -784h-273z" />
<glyph unicode="X" d="M1206 0h-305l-285 494l-284 -494h-305l438 758l-426 735h305l272 -475l273 475h305l-424 -735z" />
<glyph unicode="Y" d="M8 1493h318l290 -600l291 600h318l-461 -905v-588h-295v588z" />
<glyph unicode="Z" d="M137 1493h1010v-244l-692 -989h706v-260h-1046v244l671 989h-649v260z" />
<glyph unicode="[" d="M422 1556h508v-190h-242v-1446h242v-190h-508v1826z" />
<glyph unicode="\" d="M334 1493l786 -1683h-223l-786 1683h223z" />
<glyph unicode="]" d="M811 1556v-1826h-508v190h242v1446h-242v190h508z" />
<glyph unicode="^" d="M739 1493l437 -557h-242l-318 301l-317 -301h-242l437 557h245z" />
<glyph unicode="_" d="M1233 -293v-190h-1233v190h1233z" />
<glyph unicode="`" d="M481 1638l283 -376h-197l-368 376h282z" />
<glyph unicode="a" d="M700 526q-164 0 -229 -42t-65 -144q0 -76 45 -121t122 -45q116 0 180 87.5t64 244.5v20h-117zM1108 639v-639h-291v125q-53 -74 -136 -114t-183 -40q-191 0 -297.5 101t-106.5 282q0 196 127 289.5t393 93.5h203v49q0 71 -51.5 107.5t-151.5 36.5q-105 0 -203.5 -26.5 t-205.5 -84.5v250q97 40 197 59t212 19q273 0 383.5 -111t110.5 -397z" />
<glyph unicode="b" d="M850 557q0 162 -54 254t-149 92t-150 -92t-55 -254t55 -254t150 -92t149 92t54 254zM442 961q54 93 125.5 139.5t161.5 46.5q199 0 306.5 -152t107.5 -436q0 -280 -106 -434t-298 -154q-101 0 -176 49t-121 146v-166h-292v1556h292v-595z" />
<glyph unicode="c" d="M1061 57q-74 -43 -159 -64.5t-183 -21.5q-259 0 -405 156t-146 432q0 277 147 433.5t406 156.5q90 0 173.5 -21t166.5 -65v-268q-64 55 -140.5 84.5t-158.5 29.5q-143 0 -220 -91t-77 -259t77 -258t220 -90q85 0 159 28.5t140 86.5v-269z" />
<glyph unicode="d" d="M791 961v595h292v-1556h-292v166q-47 -97 -121.5 -146t-175.5 -49q-192 0 -298 154t-106 434q0 284 107.5 436t306.5 152q90 0 161.5 -46.5t125.5 -139.5zM383 557q0 -162 54 -254t149 -92t150 92t55 254t-55 254t-150 92t-149 -92t-54 -254z" />
<glyph unicode="e" d="M1102 55q-102 -42 -208 -63t-224 -21q-281 0 -429.5 150.5t-148.5 433.5q0 274 143 433t390 159q249 0 386.5 -147.5t137.5 -415.5v-119h-759q1 -132 78 -197t230 -65q101 0 199 29t205 92v-269zM854 685q-2 116 -59.5 175.5t-169.5 59.5q-101 0 -161 -61.5t-71 -174.5z " />
<glyph unicode="f" d="M739 1218v-98h344v-225h-344v-895h-293v895h-272v225h272v78q0 202 84 280t312 78h241v-225h-229q-66 0 -89.5 -24t-25.5 -89z" />
<glyph unicode="g" d="M803 578q0 150 -57 240.5t-150 90.5q-92 0 -148.5 -90t-56.5 -241q0 -152 56.5 -242t148.5 -90q93 0 150 90.5t57 241.5zM1096 84q0 -269 -121.5 -388.5t-394.5 -119.5q-92 0 -182 13.5t-183 41.5v269q83 -46 169 -68t177 -22q124 0 183 58.5t59 182.5v121 q-43 -80 -114 -119t-173 -39q-192 0 -305 150t-113 407q0 266 113 422t303 156q96 0 171 -45t118 -127v143h293v-1036z" />
<glyph unicode="h" d="M1071 727v-727h-291v682q0 121 -34.5 173t-112.5 52q-80 0 -125 -70.5t-45 -195.5v-641h-291v1556h291v-604q31 93 106 144t181 51q159 0 240 -105.5t81 -314.5z" />
<glyph unicode="i" d="M221 1120h580v-895h364v-225h-1022v225h365v670h-287v225zM508 1665h293v-342h-293v342z" />
<glyph unicode="j" d="M850 43q0 -252 -90.5 -359.5t-300.5 -107.5h-316v225h234q98 0 139 55t41 187v852h-297v225h590v-1077zM850 1323h-293v342h293v-342z" />
<glyph unicode="k" d="M174 1556h293v-817l352 381h355l-424 -418l448 -702h-324l-307 524l-100 -96v-428h-293v1556z" />
<glyph unicode="l" d="M387 467v864h-297v225h590v-1089q0 -132 41 -187t139 -55h234v-225h-316q-209 0 -300 108t-91 359z" />
<glyph unicode="m" d="M690 1008q33 71 84 105t125 34q145 0 200.5 -100t55.5 -416v-631h-240v719q0 125 -19 167t-69 42t-70 -43t-20 -166v-719h-237v719q0 123 -20 166t-70 43t-69 -42t-19 -167v-719h-240v1120h213v-116q25 66 80 104.5t123 38.5t124 -40.5t68 -98.5z" />
<glyph unicode="n" d="M1071 727v-727h-291v682q0 122 -34.5 174.5t-112.5 52.5q-79 0 -124.5 -71t-45.5 -197v-641h-291v1120h291v-168q31 93 106 144t181 51q159 0 240 -105.5t81 -314.5z" />
<glyph unicode="o" d="M616 909q-105 0 -165 -92.5t-60 -257.5t60 -257.5t165 -92.5q106 0 166 92.5t60 257.5t-60 257.5t-166 92.5zM98 559q0 271 140.5 429.5t377.5 158.5q238 0 378.5 -158.5t140.5 -429.5t-140.5 -429.5t-378.5 -158.5q-237 0 -377.5 158.5t-140.5 429.5z" />
<glyph unicode="p" d="M442 158v-584h-292v1546h292v-168q46 97 121 146t176 49q192 0 298 -154t106 -434q0 -284 -107.5 -436t-306.5 -152q-90 0 -161.5 46.5t-125.5 140.5zM850 561q0 162 -54 254t-149 92t-150 -92t-55 -254t55 -254t150 -92t149 92t54 254z" />
<glyph unicode="q" d="M383 561q0 -162 54 -254t149 -92t150 92t55 254t-55 254t-150 92t-149 -92t-54 -254zM791 158q-54 -94 -125.5 -140.5t-161.5 -46.5q-199 0 -306.5 152t-107.5 436q0 280 106 434t298 154q101 0 175.5 -49t121.5 -146v168h292v-1546h-292v584z" />
<glyph unicode="r" d="M1151 811q-48 44 -112.5 66t-141.5 22q-93 0 -162.5 -32.5t-107.5 -94.5q-24 -38 -33.5 -92t-9.5 -164v-516h-293v1120h293v-174q43 96 132 148.5t208 52.5q60 0 117.5 -14.5t109.5 -42.5v-279z" />
<glyph unicode="s" d="M991 1085v-256q-81 52 -168.5 78.5t-175.5 26.5q-98 0 -148 -28.5t-50 -84.5q0 -80 214 -130l11 -3l84 -20q160 -38 234.5 -122.5t74.5 -228.5q0 -173 -113.5 -259.5t-341.5 -86.5q-101 0 -207 17.5t-215 52.5v256q97 -55 197.5 -84t194.5 -29q103 0 156 30t53 87 q0 56 -37.5 86t-178.5 64l-81 18q-168 38 -245 119t-77 217q0 162 117 252t329 90q95 0 189.5 -15.5t183.5 -46.5z" />
<glyph unicode="t" d="M690 1438v-318h383v-225h-383v-530q0 -75 36.5 -107.5t121.5 -32.5h225v-225h-246q-252 0 -341 80.5t-89 298.5v516h-286v225h286v318h293z" />
<glyph unicode="u" d="M160 391v729h293v-684q0 -121 34 -173t113 -52t123.5 70t44.5 196v643h293v-1120h-293v166q-31 -93 -105.5 -144t-179.5 -51q-160 0 -241.5 106t-81.5 314z" />
<glyph unicode="v" d="M1153 1120l-356 -1120h-361l-356 1120h297l239 -874l240 874h297z" />
<glyph unicode="w" d="M0 1120h244l133 -858l121 565h237l119 -565l135 858h244l-203 -1120h-278l-136 582l-135 -582h-278z" />
<glyph unicode="x" d="M1145 1120l-377 -536l410 -584h-342l-220 377l-219 -377h-342l414 584l-381 536h342l186 -334l187 334h342z" />
<glyph unicode="y" d="M711 -121q-59 -158 -141.5 -230.5t-200.5 -72.5h-242v223h119q90 0 132 30.5t85 141.5l22 60l-426 1089h308l256 -727l245 727h308z" />
<glyph unicode="z" d="M186 1120h895v-229l-589 -672h589v-219h-919v229l590 672h-566v219z" />
<glyph unicode="{" d="M1053 -143v-191h-150q-249 0 -333.5 74t-84.5 295v215q0 151 -53.5 208.5t-193.5 57.5h-62v191h62q140 0 193.5 57t53.5 209v215q0 221 84.5 294.5t333.5 73.5h150v-190h-123q-104 0 -139 -42t-35 -185v-209q0 -165 -49 -232t-175 -86q126 -21 175 -89t49 -232v-205 q0 -144 35 -186.5t139 -42.5h123z" />
<glyph unicode="|" d="M729 1565v-2048h-227v2048h227z" />
<glyph unicode="}" d="M180 -143h121q104 0 140 43t36 186v205q0 164 49 232t174 89q-126 19 -174.5 86t-48.5 232v209q0 141 -35.5 184t-140.5 43h-121v190h150q248 0 331.5 -73.5t83.5 -294.5v-215q0 -151 54.5 -208.5t195.5 -57.5h62v-191h-62q-141 0 -195.5 -58t-54.5 -208v-215 q0 -221 -83.5 -295t-331.5 -74h-150v191z" />
<glyph unicode="~" d="M1145 811v-233q-75 -60 -146.5 -87.5t-150.5 -27.5q-90 0 -203 51q-22 10 -33 14q-77 34 -128.5 46t-102.5 12q-78 0 -148.5 -29t-144.5 -92v229q78 61 151 88t156 27q53 0 103 -11t124 -42l33 -15q116 -55 209 -55q70 0 139 30.5t142 94.5z" />
<glyph unicode="&#xa0;" />
<glyph unicode="&#xa1;" d="M750 1210h-267v283h267v-283zM750 0h-267v655l33 357h199l35 -357v-655z" />
<glyph unicode="&#xa2;" d="M1036 1077v-268q-56 42 -116 66.5t-123 31.5v-692q64 5 123.5 29t115.5 67v-268q-52 -29 -112 -46t-127 -22v-288h-142v288q-235 22 -371.5 179t-136.5 407q0 255 136.5 411.5t371.5 172.5v287h142v-287q61 -5 119.5 -21.5t119.5 -46.5zM655 215v692 q-114 -14 -175.5 -103.5t-61.5 -242.5q0 -155 63 -247.5t174 -98.5z" />
<glyph unicode="&#xa3;" d="M1102 1462v-274q-57 41 -122 62.5t-134 21.5q-106 0 -155.5 -66.5t-49.5 -210.5v-176h336v-225h-336v-334h481v-260h-1003v260h235v334h-198v225h198v197q0 256 112.5 380t344.5 124q83 0 154 -14.5t137 -43.5z" />
<glyph unicode="&#xa4;" d="M827 643q0 73 -50 122.5t-124 49.5q-73 0 -123.5 -49.5t-50.5 -122.5q0 -74 50.5 -125t123.5 -51q74 0 124 51t50 125zM819 938l172 170l127 -129l-170 -170q23 -41 34 -82.5t11 -85.5q0 -47 -11.5 -87.5t-35.5 -76.5l172 -170l-131 -131l-170 172q-36 -24 -76 -35.5 t-88 -11.5q-39 0 -81 10.5t-87 32.5l-170 -168l-129 129l170 170q-22 42 -33.5 83.5t-11.5 82.5q0 47 11.5 87.5t35.5 78.5l-172 170l131 131l166 -172q41 24 82.5 35.5t87.5 11.5q39 0 79.5 -11t86.5 -34z" />
<glyph unicode="&#xa5;" d="M8 1493h318l290 -600l291 600h318l-273 -528h224v-187h-322l-86 -151h408v-189h-412v-438h-295v438h-412v189h408l-86 151h-322v187h224z" />
<glyph unicode="&#xa6;" d="M729 408v-758h-227v758h227zM729 1432v-758h-227v758h227z" />
<glyph unicode="&#xa7;" d="M518 856q-55 -36 -79.5 -70.5t-24.5 -74.5q0 -54 48.5 -98t248.5 -140q55 36 79.5 70.5t24.5 77.5q0 81 -265 219zM930 1460v-225q-85 30 -151 44.5t-120 14.5q-76 0 -118.5 -29t-42.5 -81q0 -75 203 -180q19 -10 28 -15q214 -110 273 -180.5t59 -171.5q0 -89 -47.5 -153 t-149.5 -111q70 -50 102.5 -111.5t32.5 -142.5q0 -147 -104.5 -230.5t-290.5 -83.5q-89 0 -175 14.5t-171 43.5v229q85 -30 166 -45.5t154 -15.5q77 0 118 28.5t41 81.5q0 70 -214 185l-11 6l-26 14q-316 170 -316 342q0 94 52 163.5t149 102.5q-71 50 -103 110t-32 142 q0 142 104 228t276 86q74 0 152.5 -15t161.5 -45z" />
<glyph unicode="&#xa8;" d="M696 1585h236v-246h-236v246zM301 1585h236v-246h-236v246z" />
<glyph unicode="&#xa9;" d="M848 1049v-168q-52 31 -97.5 45t-93.5 14q-97 0 -150.5 -52t-53.5 -147t53 -146.5t151 -51.5q53 0 101 14.5t90 44.5v-168q-55 -17 -108 -26t-103 -9q-169 0 -270 93.5t-101 248.5q0 156 101 249t270 93q55 0 107.5 -8.5t103.5 -25.5zM616 1358q127 0 236 -45t199 -135 q90 -91 136 -201t46 -236q0 -125 -45.5 -234t-136.5 -200t-200 -136.5t-235 -45.5q-125 0 -234 45.5t-200 136.5t-136.5 200t-45.5 234q0 126 46 236t136 201q90 90 199 135t235 45zM616 1229q-99 0 -184 -35.5t-158 -108.5q-71 -71 -107 -157t-36 -187q0 -98 36 -183 t107 -157t157 -108.5t185 -36.5q100 0 186 36.5t156 108.5q72 72 108 157t36 183q0 101 -36 187t-108 157q-72 73 -156.5 108.5t-185.5 35.5z" />
<glyph unicode="&#xaa;" d="M786 1049v30h-102q-109 0 -159 -26t-50 -82q0 -49 30.5 -77t84.5 -28q86 0 141 51.5t55 131.5zM786 809q-50 -57 -110.5 -84t-138.5 -27q-130 0 -205.5 68.5t-75.5 185.5q0 134 92.5 200.5t280.5 66.5h157v26q0 49 -45.5 73.5t-136.5 24.5q-82 0 -153.5 -16.5 t-135.5 -50.5v188q73 28 147 42t150 14q189 0 278 -86t89 -269v-448h-193v92zM293 598h688v-170h-688v170z" />
<glyph unicode="&#xab;" d="M1042 1059v-238l-276 -221l276 -221v-238l-469 394v131zM588 1059v-238l-277 -221l277 -221v-238l-469 394v131z" />
<glyph unicode="&#xac;" d="M88 899h1057v-537h-238v300h-819v237z" />
<glyph unicode="&#xad;" d="M301 735h631v-291h-631v291z" />
<glyph unicode="&#xae;" d="M616 1358q127 0 236 -45t199 -135q90 -91 136 -201t46 -236q0 -125 -45.5 -234t-136.5 -200t-200 -136.5t-235 -45.5q-125 0 -234 45.5t-200 136.5t-136.5 200t-45.5 234q0 126 46 236t136 201q90 90 199 135t235 45zM588 944h-64v-164h64q57 0 85.5 20t28.5 60 q0 43 -28 63.5t-86 20.5zM606 1055q133 0 197.5 -44t64.5 -134q0 -65 -39 -107.5t-110 -54.5q38 -14 65.5 -42t51.5 -77l79 -166h-172l-63 133q-27 58 -55.5 81.5t-69.5 25.5h-31v-240h-164v625h246zM616 1229q-99 0 -184 -35.5t-158 -108.5q-71 -71 -107 -157t-36 -187 q0 -98 36 -183t107 -159q72 -71 157.5 -107t184.5 -36t185 36t157 107q72 74 108 159t36 183q0 101 -36 187t-108 157q-72 73 -156.5 108.5t-185.5 35.5z" />
<glyph unicode="&#xaf;" d="M301 1556h631v-188h-631v188z" />
<glyph unicode="&#xb0;" d="M616 1520q67 0 128 -25.5t108 -73.5q47 -47 71.5 -107t24.5 -128q0 -66 -25 -127t-71 -107q-48 -47 -109 -72.5t-129 -25.5q-141 0 -236 95t-95 237q0 141 96 237.5t237 96.5zM616 1358q-72 0 -122 -50t-50 -122t49 -121t121 -49t122 49.5t50 120.5q0 72 -49.5 122 t-120.5 50z" />
<glyph unicode="&#xb1;" d="M735 1284v-354h410v-236h-410v-354h-237v354h-410v236h410v354h237zM88 238h1057v-238h-1057v238z" />
<glyph unicode="&#xb2;" d="M500 813h440v-145h-666v141q51 43 141 118q314 262 314 341q0 52 -43.5 82t-118.5 30q-56 0 -123.5 -17.5t-144.5 -51.5v164q75 22 146 33.5t137 11.5q169 0 262.5 -62.5t93.5 -173.5q0 -126 -355 -406q-54 -42 -83 -65z" />
<glyph unicode="&#xb3;" d="M582 1042h-111v146h111q74 0 116.5 25t42.5 69q0 45 -39.5 70.5t-109.5 25.5q-69 0 -138 -11t-137 -34v152q69 17 138.5 26t136.5 9q162 0 254 -58t92 -159q0 -73 -52.5 -120t-150.5 -63q111 -15 169.5 -71t58.5 -148q0 -121 -96.5 -184.5t-280.5 -63.5q-75 0 -150 10.5 t-149 30.5v154q67 -27 143 -41t156 -14q85 0 132.5 32t47.5 88q0 61 -49 95t-135 34z" />
<glyph unicode="&#xb4;" d="M752 1638h282l-368 -376h-197z" />
<glyph unicode="&#xb5;" d="M174 -428v1548h287v-680q0 -114 41 -171.5t123 -57.5q81 0 121 57t40 172v680h289v-776q0 -71 13.5 -102t44.5 -31q14 0 27 5.5t28 16.5v-217q-43 -23 -80 -34t-72 -11q-72 0 -117.5 37.5t-72.5 120.5q-37 -78 -92 -118t-125 -40q-59 0 -100.5 23.5t-67.5 71.5l2 -494 h-289z" />
<glyph unicode="&#xb6;" d="M545 1493h520v-1690h-191v1543h-190v-1543h-188v846q-205 25 -315.5 134.5t-110.5 287.5q0 190 130 306t345 116z" />
<glyph unicode="&#xb7;" d="M449 895h333v-365h-333v365z" />
<glyph unicode="&#xb8;" d="M367 0zM707 0q57 -62 84.5 -115t27.5 -100q0 -95 -61.5 -140.5t-188.5 -45.5q-48 0 -98.5 6.5t-103.5 19.5v156q45 -17 87 -26t78 -9q58 0 90.5 23t32.5 63q0 26 -21 67t-67 101h140z" />
<glyph unicode="&#xb9;" d="M313 813h226v543l-220 -43v149l222 41h194v-690h226v-145h-648v145z" />
<glyph unicode="&#xba;" d="M293 598h688v-170h-688v170zM274 1108q0 189 98.5 300.5t264.5 111.5t264 -111t98 -301q0 -189 -97.5 -299.5t-264.5 -110.5q-166 0 -264.5 110.5t-98.5 299.5zM637 1343q-73 0 -115.5 -63t-42.5 -172t42.5 -171.5t115.5 -62.5t115.5 62.5t42.5 171.5t-42.5 172 t-115.5 63z" />
<glyph unicode="&#xbb;" d="M193 1059l469 -393v-131l-469 -394v238l276 221l-276 221v238zM647 1059l469 -393v-131l-469 -394v238l277 221l-277 221v238z" />
<glyph unicode="&#xbc;" d="M47 0zM823 383l-250 -330h250v330zM805 565h204v-512h109v-143h-109v-180h-186v180h-393v162zM55 969h226v543l-220 -43v149l222 41h194v-690h226v-145h-648v145zM84 500l-37 118l1059 263l37 -119z" />
<glyph unicode="&#xbd;" d="M47 0zM55 969h226v543l-220 -43v149l222 41h194v-690h226v-145h-648v145zM84 500l-37 118l1059 263l37 -119zM701 -125h440v-145h-666v141q51 43 141 118q314 262 314 341q0 52 -43.5 82t-118.5 30q-56 0 -123.5 -17.5t-144.5 -51.5v164q75 22 146 33.5t137 11.5 q169 0 262.5 -62.5t93.5 -173.5q0 -126 -355 -406q-54 -42 -83 -65z" />
<glyph unicode="&#xbe;" d="M47 0zM823 383l-250 -330h250v330zM805 565h204v-512h109v-143h-109v-180h-186v180h-393v162zM355 1198h-111v146h111q74 0 116.5 25t42.5 69q0 45 -39.5 70.5t-109.5 25.5q-69 0 -138 -11t-137 -34v152q69 17 138.5 26t136.5 9q162 0 254 -58t92 -159q0 -73 -52.5 -120 t-150.5 -63q111 -15 169.5 -71t58.5 -148q0 -121 -96.5 -184.5t-280.5 -63.5q-75 0 -150 10.5t-149 30.5v154q67 -27 143 -41t156 -14q85 0 132.5 32t47.5 88q0 61 -49 95t-135 34zM84 500l-37 118l1059 263l37 -119z" />
<glyph unicode="&#xbf;" d="M799 1210h-267v283h267v-283zM532 1092h267v-154q0 -99 -31 -169.5t-111 -147.5l-90 -89q-61 -59 -83.5 -99.5t-22.5 -84.5q0 -67 46 -101t138 -34q83 0 173.5 35.5t187.5 105.5v-268q-98 -56 -198.5 -84.5t-201.5 -28.5q-201 0 -315.5 94t-114.5 259q0 76 34 141.5 t128 157.5l88 86q66 64 85 106t19 105q0 1 1 6q1 21 1 41v123z" />
<glyph unicode="&#xc0;" d="M33 0zM616 1223l-139 -611h279zM436 1493h361l403 -1493h-295l-92 369h-395l-90 -369h-295zM567 1899l199 -264h-197l-286 264h284z" />
<glyph unicode="&#xc1;" d="M33 0zM616 1223l-139 -611h279zM436 1493h361l403 -1493h-295l-92 369h-395l-90 -369h-295zM668 1899h284l-286 -264h-197z" />
<glyph unicode="&#xc2;" d="M33 0zM616 1223l-139 -611h279zM436 1493h361l403 -1493h-295l-92 369h-395l-90 -369h-295zM461 1899h309l223 -264h-178l-199 161l-198 -161h-178z" />
<glyph unicode="&#xc3;" d="M33 0zM616 1223l-139 -611h279zM436 1493h361l403 -1493h-295l-92 369h-395l-90 -369h-295zM618 1684l-54 34q-5 3 -12 7q-45 26 -73 26q-31 0 -51 -30t-20 -80v-6h-140v30q0 106 54.5 171t142.5 65q36 0 73.5 -12.5t75.5 -36.5l60 -39q21 -14 40.5 -21.5t35.5 -7.5 q36 0 55.5 30t19.5 87h140q0 -5 -1 -15t-1 -16q0 -106 -53.5 -170.5t-141.5 -64.5q-37 0 -72.5 11t-77.5 38z" />
<glyph unicode="&#xc4;" d="M33 0zM616 1223l-139 -611h279zM436 1493h361l403 -1493h-295l-92 369h-395l-90 -369h-295zM696 1899h236v-246h-236v246zM301 1899h236v-246h-236v246z" />
<glyph unicode="&#xc5;" d="M815 1421l385 -1421h-295l-92 369h-395l-90 -369h-295l385 1421q-44 37 -65 85.5t-21 109.5q0 117 83.5 201t200.5 84q118 0 201.5 -84t83.5 -201q0 -62 -21 -109.5t-65 -85.5zM485 1616q0 -54 39 -92.5t92 -38.5q55 0 93.5 38.5t38.5 92.5t-39 92.5t-93 38.5 q-53 0 -92 -38.5t-39 -92.5zM616 1223l-139 -611h279z" />
<glyph unicode="&#xc6;" d="M1161 1493v-260h-291v-311h260v-260h-260v-402h310v-260h-564v362h-282l-86 -362h-248l358 1493h803zM537 1233l-148 -635h227v635h-79z" />
<glyph unicode="&#xc7;" d="M152 0zM824 0q57 -62 84.5 -115t27.5 -100q0 -95 -61.5 -140.5t-188.5 -45.5q-48 0 -98.5 6.5t-103.5 19.5v156q45 -17 87 -26t78 -9q58 0 90.5 23t32.5 63q0 26 -21 67t-67 101h140zM1081 43q-70 -36 -147 -54t-162 -18q-302 0 -461 199t-159 575q0 377 159 576t461 199 q85 0 163 -18t146 -54v-328q-76 70 -147.5 102.5t-147.5 32.5q-162 0 -244.5 -128.5t-82.5 -381.5q0 -252 82.5 -380.5t244.5 -128.5q76 0 147.5 32.5t147.5 102.5v-328z" />
<glyph unicode="&#xc8;" d="M168 0zM1098 0h-930v1493h930v-260h-635v-322h575v-260h-575v-391h635v-260zM598 1899l199 -264h-197l-286 264h284z" />
<glyph unicode="&#xc9;" d="M168 0zM1098 0h-930v1493h930v-260h-635v-322h575v-260h-575v-391h635v-260zM699 1899h284l-286 -264h-197z" />
<glyph unicode="&#xca;" d="M168 0zM1098 0h-930v1493h930v-260h-635v-322h575v-260h-575v-391h635v-260zM492 1899h309l223 -264h-178l-199 161l-198 -161h-178z" />
<glyph unicode="&#xcb;" d="M168 0zM1098 0h-930v1493h930v-260h-635v-322h575v-260h-575v-391h635v-260zM727 1899h236v-246h-236v246zM332 1899h236v-246h-236v246z" />
<glyph unicode="&#xcc;" d="M172 0zM172 1233v260h889v-260h-297v-973h297v-260h-889v260h297v973h-297zM567 1899l199 -264h-197l-286 264h284z" />
<glyph unicode="&#xcd;" d="M172 0zM172 1233v260h889v-260h-297v-973h297v-260h-889v260h297v973h-297zM668 1899h284l-286 -264h-197z" />
<glyph unicode="&#xce;" d="M172 0zM172 1233v260h889v-260h-297v-973h297v-260h-889v260h297v973h-297zM461 1899h309l223 -264h-178l-199 161l-198 -161h-178z" />
<glyph unicode="&#xcf;" d="M172 0zM172 1233v260h889v-260h-297v-973h297v-260h-889v260h297v973h-297zM696 1899h236v-246h-236v246zM301 1899h236v-246h-236v246z" />
<glyph unicode="&#xd0;" d="M432 1227v-326h211v-237h-211v-398h80q174 0 248 109.5t74 372.5q0 261 -74 370t-248 109h-80zM137 1493h316q366 0 527 -174.5t161 -570.5q0 -397 -161 -572.5t-527 -175.5h-316v664h-137v237h137v592z" />
<glyph unicode="&#xd1;" d="M119 0zM119 1493h317l416 -1085v1085h260v-1493h-315l-418 1085v-1085h-260v1493zM618 1684l-54 34q-5 3 -12 7q-45 26 -73 26q-31 0 -51 -30t-20 -80v-6h-140v30q0 106 54.5 171t142.5 65q36 0 73.5 -12.5t75.5 -36.5l60 -39q21 -14 40.5 -21.5t35.5 -7.5q36 0 55.5 30 t19.5 87h140q0 -5 -1 -15t-1 -16q0 -106 -53.5 -170.5t-141.5 -64.5q-37 0 -72.5 11t-77.5 38z" />
<glyph unicode="&#xd2;" d="M92 0zM616 1255q-113 0 -165 -120.5t-52 -389.5q0 -268 52 -388.5t165 -120.5q114 0 166 120.5t52 388.5q0 269 -52 389.5t-166 120.5zM92 745q0 383 132.5 579t391.5 196q260 0 392.5 -196t132.5 -579q0 -382 -132.5 -578t-392.5 -196q-259 0 -391.5 196t-132.5 578z M567 1899l199 -264h-197l-286 264h284z" />
<glyph unicode="&#xd3;" d="M92 0zM616 1255q-113 0 -165 -120.5t-52 -389.5q0 -268 52 -388.5t165 -120.5q114 0 166 120.5t52 388.5q0 269 -52 389.5t-166 120.5zM92 745q0 383 132.5 579t391.5 196q260 0 392.5 -196t132.5 -579q0 -382 -132.5 -578t-392.5 -196q-259 0 -391.5 196t-132.5 578z M668 1899h284l-286 -264h-197z" />
<glyph unicode="&#xd4;" d="M92 0zM616 1255q-113 0 -165 -120.5t-52 -389.5q0 -268 52 -388.5t165 -120.5q114 0 166 120.5t52 388.5q0 269 -52 389.5t-166 120.5zM92 745q0 383 132.5 579t391.5 196q260 0 392.5 -196t132.5 -579q0 -382 -132.5 -578t-392.5 -196q-259 0 -391.5 196t-132.5 578z M461 1899h309l223 -264h-178l-199 161l-198 -161h-178z" />
<glyph unicode="&#xd5;" d="M92 0zM616 1255q-113 0 -165 -120.5t-52 -389.5q0 -268 52 -388.5t165 -120.5q114 0 166 120.5t52 388.5q0 269 -52 389.5t-166 120.5zM92 745q0 383 132.5 579t391.5 196q260 0 392.5 -196t132.5 -579q0 -382 -132.5 -578t-392.5 -196q-259 0 -391.5 196t-132.5 578z M618 1684l-54 34q-5 3 -12 7q-45 26 -73 26q-31 0 -51 -30t-20 -80v-6h-140v30q0 106 54.5 171t142.5 65q36 0 73.5 -12.5t75.5 -36.5l60 -39q21 -14 40.5 -21.5t35.5 -7.5q36 0 55.5 30t19.5 87h140q0 -5 -1 -15t-1 -16q0 -106 -53.5 -170.5t-141.5 -64.5q-37 0 -72.5 11 t-77.5 38z" />
<glyph unicode="&#xd6;" d="M92 0zM616 1255q-113 0 -165 -120.5t-52 -389.5q0 -268 52 -388.5t165 -120.5q114 0 166 120.5t52 388.5q0 269 -52 389.5t-166 120.5zM92 745q0 383 132.5 579t391.5 196q260 0 392.5 -196t132.5 -579q0 -382 -132.5 -578t-392.5 -196q-259 0 -391.5 196t-132.5 578z M696 1899h236v-246h-236v246zM301 1899h236v-246h-236v246z" />
<glyph unicode="&#xd7;" d="M1112 971l-330 -328l330 -330l-168 -166l-330 328l-327 -328l-168 166l330 330l-330 328l168 168l327 -328l330 328z" />
<glyph unicode="&#xd8;" d="M451 354q24 -57 66.5 -87.5t98.5 -30.5q114 0 166 120.5t52 388.5q0 28 -1 59t-4 84zM772 1153q-26 51 -65 76.5t-91 25.5q-112 0 -164.5 -120t-52.5 -379v-127zM162 289q-35 88 -52.5 201.5t-17.5 254.5q0 383 132.5 579t391.5 196q103 0 186 -31t144 -92l113 162 l162 -115l-158 -223q39 -94 58.5 -213.5t19.5 -262.5q0 -382 -132.5 -578t-392.5 -196q-106 0 -191 33.5t-149 99.5l-120 -167l-162 114z" />
<glyph unicode="&#xd9;" d="M106 0zM106 551v942h295v-1016q0 -112 57 -175.5t158 -63.5t158 63.5t57 175.5v1016h295v-942q0 -304 -121 -442t-389 -138q-267 0 -388.5 138t-121.5 442zM567 1899l199 -264h-197l-286 264h284z" />
<glyph unicode="&#xda;" d="M106 0zM106 551v942h295v-1016q0 -112 57 -175.5t158 -63.5t158 63.5t57 175.5v1016h295v-942q0 -304 -121 -442t-389 -138q-267 0 -388.5 138t-121.5 442zM668 1899h284l-286 -264h-197z" />
<glyph unicode="&#xdb;" d="M106 0zM106 551v942h295v-1016q0 -112 57 -175.5t158 -63.5t158 63.5t57 175.5v1016h295v-942q0 -304 -121 -442t-389 -138q-267 0 -388.5 138t-121.5 442zM461 1899h309l223 -264h-178l-199 161l-198 -161h-178z" />
<glyph unicode="&#xdc;" d="M106 0zM106 551v942h295v-1016q0 -112 57 -175.5t158 -63.5t158 63.5t57 175.5v1016h295v-942q0 -304 -121 -442t-389 -138q-267 0 -388.5 138t-121.5 442zM696 1899h236v-246h-236v246zM301 1899h236v-246h-236v246z" />
<glyph unicode="&#xdd;" d="M8 0zM8 1493h318l290 -600l291 600h318l-461 -905v-588h-295v588zM668 1899h284l-286 -264h-197z" />
<glyph unicode="&#xde;" d="M457 1014v-439h121q146 0 204 49t58 169q0 121 -58.5 171t-203.5 50h-121zM162 1493h295v-238h110q309 0 444.5 -109.5t135.5 -357.5q0 -239 -137 -347.5t-443 -108.5h-110v-332h-295v1493z" />
<glyph unicode="&#xdf;" d="M1034 1059q-125 -6 -189.5 -51.5t-64.5 -126.5q0 -64 116 -153q13 -10 19 -15l97 -74q82 -62 122 -138.5t40 -170.5q0 -167 -112 -263t-306 -96q-61 0 -123 12.5t-129 36.5v250q58 -31 115.5 -47t111.5 -16q73 0 115.5 33.5t42.5 91.5q0 72 -115 160q-29 22 -45 34 l-86 68q-59 48 -89 111.5t-30 140.5q0 126 74 211.5t211 116.5q-9 74 -58 110.5t-141 36.5q-94 0 -142 -50.5t-48 -148.5v-1122h-293v1126q0 211 120.5 320.5t350.5 109.5q223 0 329.5 -118.5t106.5 -364.5v-14z" />
<glyph unicode="&#xe0;" d="M94 0zM700 526q-164 0 -229 -42t-65 -144q0 -76 45 -121t122 -45q116 0 180 87.5t64 244.5v20h-117zM1108 639v-639h-291v125q-53 -74 -136 -114t-183 -40q-191 0 -297.5 101t-106.5 282q0 196 127 289.5t393 93.5h203v49q0 71 -51.5 107.5t-151.5 36.5 q-105 0 -203.5 -26.5t-205.5 -84.5v250q97 40 197 59t212 19q273 0 383.5 -111t110.5 -397zM481 1638l283 -376h-197l-368 376h282z" />
<glyph unicode="&#xe1;" d="M94 0zM700 526q-164 0 -229 -42t-65 -144q0 -76 45 -121t122 -45q116 0 180 87.5t64 244.5v20h-117zM1108 639v-639h-291v125q-53 -74 -136 -114t-183 -40q-191 0 -297.5 101t-106.5 282q0 196 127 289.5t393 93.5h203v49q0 71 -51.5 107.5t-151.5 36.5 q-105 0 -203.5 -26.5t-205.5 -84.5v250q97 40 197 59t212 19q273 0 383.5 -111t110.5 -397zM752 1638h282l-368 -376h-197z" />
<glyph unicode="&#xe2;" d="M94 0zM700 526q-164 0 -229 -42t-65 -144q0 -76 45 -121t122 -45q116 0 180 87.5t64 244.5v20h-117zM1108 639v-639h-291v125q-53 -74 -136 -114t-183 -40q-191 0 -297.5 101t-106.5 282q0 196 127 289.5t393 93.5h203v49q0 71 -51.5 107.5t-151.5 36.5 q-105 0 -203.5 -26.5t-205.5 -84.5v250q97 40 197 59t212 19q273 0 383.5 -111t110.5 -397zM496 1638h241l256 -376h-178l-199 225l-198 -225h-178z" />
<glyph unicode="&#xe3;" d="M94 0zM700 526q-164 0 -229 -42t-65 -144q0 -76 45 -121t122 -45q116 0 180 87.5t64 244.5v20h-117zM1108 639v-639h-291v125q-53 -74 -136 -114t-183 -40q-191 0 -297.5 101t-106.5 282q0 196 127 289.5t393 93.5h203v49q0 71 -51.5 107.5t-151.5 36.5 q-105 0 -203.5 -26.5t-205.5 -84.5v250q97 40 197 59t212 19q273 0 383.5 -111t110.5 -397zM618 1364l-55 37l-12 8q-43 29 -70 29q-36 0 -54.5 -31t-18.5 -90v-8h-140q0 136 51.5 210t145.5 74q36 0 72 -13.5t77 -43.5l62 -43q21 -15 39.5 -23t34.5 -8q36 0 55.5 31.5 t19.5 89.5v8h140q0 -136 -51.5 -210t-145.5 -74q-36 0 -69 12t-81 45z" />
<glyph unicode="&#xe4;" d="M94 0zM700 526q-164 0 -229 -42t-65 -144q0 -76 45 -121t122 -45q116 0 180 87.5t64 244.5v20h-117zM1108 639v-639h-291v125q-53 -74 -136 -114t-183 -40q-191 0 -297.5 101t-106.5 282q0 196 127 289.5t393 93.5h203v49q0 71 -51.5 107.5t-151.5 36.5 q-105 0 -203.5 -26.5t-205.5 -84.5v250q97 40 197 59t212 19q273 0 383.5 -111t110.5 -397zM696 1585h236v-246h-236v246zM301 1585h236v-246h-236v246z" />
<glyph unicode="&#xe5;" d="M94 0zM700 526q-164 0 -229 -42t-65 -144q0 -76 45 -121t122 -45q116 0 180 87.5t64 244.5v20h-117zM1108 639v-639h-291v125q-53 -74 -136 -114t-183 -40q-191 0 -297.5 101t-106.5 282q0 196 127 289.5t393 93.5h203v49q0 71 -51.5 107.5t-151.5 36.5 q-105 0 -203.5 -26.5t-205.5 -84.5v250q97 40 197 59t212 19q273 0 383.5 -111t110.5 -397zM332 1534q0 118 83 201.5t201 83.5q119 0 202 -83.5t83 -201.5t-83 -201.5t-202 -83.5q-118 0 -201 83.5t-83 201.5zM485 1534q0 -55 38.5 -93t92.5 -38q55 0 93.5 38.5t38.5 92.5 t-39 92.5t-93 38.5t-92.5 -38.5t-38.5 -92.5z" />
<glyph unicode="&#xe6;" d="M489 401v82h-73q-87 0 -131.5 -39t-44.5 -114q0 -71 32 -108.5t93 -37.5q63 0 93.5 43t30.5 131v43zM963 690v23q0 125 -25 172t-88 47t-88 -47t-25 -172v-23h226zM1188 479h-451q0 -144 50 -219.5t145 -75.5q60 0 120 29.5t119 87.5v-244q-50 -44 -112.5 -65t-145.5 -21 q-103 0 -178 42t-117 122q-41 -84 -106.5 -124t-163.5 -40q-160 0 -247 92.5t-87 262.5q0 185 101 276.5t305 91.5h76v51q0 93 -39 140t-115 47q-57 0 -124.5 -27.5t-141.5 -81.5v246q74 39 144 58.5t134 19.5q98 0 160.5 -31t97.5 -96q29 61 94.5 94t157.5 33 q177 0 250.5 -119t73.5 -422v-127z" />
<glyph unicode="&#xe7;" d="M168 0zM779 0q57 -62 84.5 -115t27.5 -100q0 -95 -61.5 -140.5t-188.5 -45.5q-48 0 -98.5 6.5t-103.5 19.5v156q45 -17 87 -26t78 -9q58 0 90.5 23t32.5 63q0 26 -21 67t-67 101h140zM1061 57q-74 -43 -159 -64.5t-183 -21.5q-259 0 -405 156t-146 432q0 277 147 433.5 t406 156.5q90 0 173.5 -21t166.5 -65v-268q-64 55 -140.5 84.5t-158.5 29.5q-143 0 -220 -91t-77 -259t77 -258t220 -90q85 0 159 28.5t140 86.5v-269z" />
<glyph unicode="&#xe8;" d="M92 0zM1102 55q-102 -42 -208 -63t-224 -21q-281 0 -429.5 150.5t-148.5 433.5q0 274 143 433t390 159q249 0 386.5 -147.5t137.5 -415.5v-119h-759q1 -132 78 -197t230 -65q101 0 199 29t205 92v-269zM854 685q-2 116 -59.5 175.5t-169.5 59.5q-101 0 -161 -61.5 t-71 -174.5zM520 1638l283 -376h-197l-368 376h282z" />
<glyph unicode="&#xe9;" d="M92 0zM1102 55q-102 -42 -208 -63t-224 -21q-281 0 -429.5 150.5t-148.5 433.5q0 274 143 433t390 159q249 0 386.5 -147.5t137.5 -415.5v-119h-759q1 -132 78 -197t230 -65q101 0 199 29t205 92v-269zM854 685q-2 116 -59.5 175.5t-169.5 59.5q-101 0 -161 -61.5 t-71 -174.5zM791 1638h282l-368 -376h-197z" />
<glyph unicode="&#xea;" d="M92 0zM1102 55q-102 -42 -208 -63t-224 -21q-281 0 -429.5 150.5t-148.5 433.5q0 274 143 433t390 159q249 0 386.5 -147.5t137.5 -415.5v-119h-759q1 -132 78 -197t230 -65q101 0 199 29t205 92v-269zM854 685q-2 116 -59.5 175.5t-169.5 59.5q-101 0 -161 -61.5 t-71 -174.5zM535 1638h241l256 -376h-178l-199 225l-198 -225h-178z" />
<glyph unicode="&#xeb;" d="M92 0zM1102 55q-102 -42 -208 -63t-224 -21q-281 0 -429.5 150.5t-148.5 433.5q0 274 143 433t390 159q249 0 386.5 -147.5t137.5 -415.5v-119h-759q1 -132 78 -197t230 -65q101 0 199 29t205 92v-269zM854 685q-2 116 -59.5 175.5t-169.5 59.5q-101 0 -161 -61.5 t-71 -174.5zM735 1585h236v-246h-236v246zM340 1585h236v-246h-236v246z" />
<glyph unicode="&#xec;" d="M143 0zM221 1120h580v-895h364v-225h-1022v225h365v670h-287v225zM481 1638l283 -376h-197l-368 376h282z" />
<glyph unicode="&#xed;" d="M143 0zM221 1120h580v-895h364v-225h-1022v225h365v670h-287v225zM752 1638h282l-368 -376h-197z" />
<glyph unicode="&#xee;" d="M143 0zM221 1120h580v-895h364v-225h-1022v225h365v670h-287v225zM496 1638h241l256 -376h-178l-199 225l-198 -225h-178z" />
<glyph unicode="&#xef;" d="M143 0zM221 1120h580v-895h364v-225h-1022v225h365v670h-287v225zM696 1585h236v-246h-236v246zM301 1585h236v-246h-236v246z" />
<glyph unicode="&#xf0;" d="M811 760q-49 27 -98 41t-97 14q-105 0 -166 -72.5t-61 -197.5q0 -158 59.5 -247t163.5 -89q109 0 166.5 90.5t57.5 263.5q0 45 -6.5 94t-18.5 103zM940 1100q100 -137 143 -263.5t43 -277.5q0 -276 -136 -432t-378 -156q-236 0 -375 153t-139 413q0 236 130 376t347 140 q40 0 71.5 -6t58.5 -19l-160 219l-312 -119l-55 117l283 109l-158 202h293l92 -116l297 127l66 -123l-277 -117z" />
<glyph unicode="&#xf1;" d="M172 0zM1071 727v-727h-291v682q0 122 -34.5 174.5t-112.5 52.5q-79 0 -124.5 -71t-45.5 -197v-641h-291v1120h291v-168q31 93 106 144t181 51q159 0 240 -105.5t81 -314.5zM618 1364l-55 37l-12 8q-43 29 -70 29q-36 0 -54.5 -31t-18.5 -90v-8h-140q0 136 51.5 210 t145.5 74q36 0 72 -13.5t77 -43.5l62 -43q21 -15 39.5 -23t34.5 -8q36 0 55.5 31.5t19.5 89.5v8h140q0 -136 -51.5 -210t-145.5 -74q-36 0 -69 12t-81 45z" />
<glyph unicode="&#xf2;" d="M98 0zM195 1264zM477 1640l283 -376h-197l-368 376h282zM616 909q-105 0 -165 -92.5t-60 -257.5t60 -257.5t165 -92.5q106 0 166 92.5t60 257.5t-60 257.5t-166 92.5zM98 559q0 271 140.5 429.5t377.5 158.5q238 0 378.5 -158.5t140.5 -429.5t-140.5 -429.5 t-378.5 -158.5q-237 0 -377.5 158.5t-140.5 429.5z" />
<glyph unicode="&#xf3;" d="M98 0zM471 1263zM754 1639h282l-368 -376h-197zM616 909q-105 0 -165 -92.5t-60 -257.5t60 -257.5t165 -92.5q106 0 166 92.5t60 257.5t-60 257.5t-166 92.5zM98 559q0 271 140.5 429.5t377.5 158.5q238 0 378.5 -158.5t140.5 -429.5t-140.5 -429.5t-378.5 -158.5 q-237 0 -377.5 158.5t-140.5 429.5z" />
<glyph unicode="&#xf4;" d="M98 0zM496 1639h241l256 -376h-178l-199 225l-198 -225h-178zM616 909q-105 0 -165 -92.5t-60 -257.5t60 -257.5t165 -92.5q106 0 166 92.5t60 257.5t-60 257.5t-166 92.5zM98 559q0 271 140.5 429.5t377.5 158.5q238 0 378.5 -158.5t140.5 -429.5t-140.5 -429.5 t-378.5 -158.5q-237 0 -377.5 158.5t-140.5 429.5z" />
<glyph unicode="&#xf5;" d="M98 0zM618 1331l-55 37l-12 8q-43 29 -70 29q-36 0 -54.5 -31t-18.5 -90v-8h-140q0 136 51.5 210t145.5 74q36 0 72 -13.5t77 -43.5l62 -43q21 -15 39.5 -23t34.5 -8q36 0 55.5 31.5t19.5 89.5v8h140q0 -136 -51.5 -210t-145.5 -74q-36 0 -69 12t-81 45zM616 909 q-105 0 -165 -92.5t-60 -257.5t60 -257.5t165 -92.5q106 0 166 92.5t60 257.5t-60 257.5t-166 92.5zM98 559q0 271 140.5 429.5t377.5 158.5q238 0 378.5 -158.5t140.5 -429.5t-140.5 -429.5t-378.5 -158.5q-237 0 -377.5 158.5t-140.5 429.5z" />
<glyph unicode="&#xf6;" d="M98 0zM696 1561h236v-246h-236v246zM301 1561h236v-246h-236v246zM616 909q-105 0 -165 -92.5t-60 -257.5t60 -257.5t165 -92.5q106 0 166 92.5t60 257.5t-60 257.5t-166 92.5zM98 559q0 271 140.5 429.5t377.5 158.5q238 0 378.5 -158.5t140.5 -429.5t-140.5 -429.5 t-378.5 -158.5q-237 0 -377.5 158.5t-140.5 429.5z" />
<glyph unicode="&#xf7;" d="M461 1198h309v-309h-309v309zM461 395h309v-309h-309v309zM66 762h1099v-238h-1099v238z" />
<glyph unicode="&#xf8;" d="M831 675l-348 -413q31 -27 64 -40t71 -13q104 0 164 93.5t60 256.5q0 29 -2.5 58t-8.5 58zM399 449l346 411q-26 25 -57 37t-70 12q-106 0 -166.5 -92.5t-60.5 -257.5q0 -34 2 -60t6 -50zM188 199q-45 73 -67.5 162t-22.5 198q0 271 140.5 429.5t377.5 158.5 q85 0 158.5 -21.5t140.5 -66.5l148 176l139 -121l-160 -188q46 -76 69.5 -168t23.5 -199q0 -271 -140.5 -429.5t-378.5 -158.5q-83 0 -158.5 22.5t-142.5 67.5l-151 -178l-139 119z" />
<glyph unicode="&#xf9;" d="M160 0zM160 391v729h293v-684q0 -121 34 -173t113 -52t123.5 70t44.5 196v643h293v-1120h-293v166q-31 -93 -105.5 -144t-179.5 -51q-160 0 -241.5 106t-81.5 314zM481 1638l283 -376h-197l-368 376h282z" />
<glyph unicode="&#xfa;" d="M160 0zM160 391v729h293v-684q0 -121 34 -173t113 -52t123.5 70t44.5 196v643h293v-1120h-293v166q-31 -93 -105.5 -144t-179.5 -51q-160 0 -241.5 106t-81.5 314zM752 1638h282l-368 -376h-197z" />
<glyph unicode="&#xfb;" d="M160 0zM160 391v729h293v-684q0 -121 34 -173t113 -52t123.5 70t44.5 196v643h293v-1120h-293v166q-31 -93 -105.5 -144t-179.5 -51q-160 0 -241.5 106t-81.5 314zM496 1638h241l256 -376h-178l-199 225l-198 -225h-178z" />
<glyph unicode="&#xfc;" d="M160 0zM160 391v729h293v-684q0 -121 34 -173t113 -52t123.5 70t44.5 196v643h293v-1120h-293v166q-31 -93 -105.5 -144t-179.5 -51q-160 0 -241.5 106t-81.5 314zM696 1585h236v-246h-236v246zM301 1585h236v-246h-236v246z" />
<glyph unicode="&#xfd;" d="M59 0zM711 -121q-59 -158 -141.5 -230.5t-200.5 -72.5h-242v223h119q90 0 132 30.5t85 141.5l22 60l-426 1089h308l256 -727l245 727h308zM752 1638h282l-368 -376h-197z" />
<glyph unicode="&#xfe;" d="M442 158v-584h-292v1982h292v-604q46 97 121 146t176 49q192 0 298 -154t106 -434q0 -284 -107.5 -436t-306.5 -152q-90 0 -161.5 46.5t-125.5 140.5zM850 561q0 162 -54 254t-149 92t-150 -92t-55 -254t55 -254t150 -92t149 92t54 254z" />
<glyph unicode="&#xff;" d="M59 0zM711 -121q-59 -158 -141.5 -230.5t-200.5 -72.5h-242v223h119q90 0 132 30.5t85 141.5l22 60l-426 1089h308l256 -727l245 727h308zM696 1585h236v-246h-236v246zM301 1585h236v-246h-236v246z" />
<glyph unicode="&#x100;" d="M33 0zM301 1870h631v-188h-631v188zM616 1223l-139 -611h279zM436 1493h361l403 -1493h-295l-92 369h-395l-90 -369h-295z" />
<glyph unicode="&#x101;" d="M94 0zM301 1556h631v-188h-631v188zM700 526q-164 0 -229 -42t-65 -144q0 -76 45 -121t122 -45q116 0 180 87.5t64 244.5v20h-117zM1108 639v-639h-291v125q-53 -74 -136 -114t-183 -40q-191 0 -297.5 101t-106.5 282q0 196 127 289.5t393 93.5h203v49q0 71 -51.5 107.5 t-151.5 36.5q-105 0 -203.5 -26.5t-205.5 -84.5v250q97 40 197 59t212 19q273 0 383.5 -111t110.5 -397z" />
<glyph unicode="&#x102;" d="M33 0zM616 1223l-139 -611h279zM436 1493h361l403 -1493h-295l-92 369h-395l-90 -369h-295zM281 1899h141q20 -60 69 -90.5t125 -30.5q77 0 125 30t68 91h143q-15 -129 -101.5 -196.5t-234.5 -67.5q-147 0 -233.5 67.5t-101.5 196.5z" />
<glyph unicode="&#x103;" d="M94 0zM700 526q-164 0 -229 -42t-65 -144q0 -76 45 -121t122 -45q116 0 180 87.5t64 244.5v20h-117zM1108 639v-639h-291v125q-53 -74 -136 -114t-183 -40q-191 0 -297.5 101t-106.5 282q0 196 127 289.5t393 93.5h203v49q0 71 -51.5 107.5t-151.5 36.5 q-105 0 -203.5 -26.5t-205.5 -84.5v250q97 40 197 59t212 19q273 0 383.5 -111t110.5 -397zM281 1606h141q11 -69 61 -106.5t133 -37.5t132.5 37t60.5 107h143q-6 -144 -92.5 -220.5t-243.5 -76.5q-156 0 -242.5 76.5t-92.5 220.5z" />
<glyph unicode="&#x104;" d="M33 0zM912 0h141q-53 -71 -71.5 -106t-18.5 -60q0 -39 30.5 -63.5t80.5 -24.5q38 0 76.5 7.5t78.5 23.5v-156q-54 -11 -101.5 -16.5t-88.5 -5.5q-114 0 -176 46t-62 132q0 53 27.5 107.5t83.5 115.5zM616 1223l-139 -611h279zM436 1493h361l403 -1493h-295l-92 369h-395 l-90 -369h-295z" />
<glyph unicode="&#x105;" d="M94 0zM815 0h141q-53 -71 -71.5 -106t-18.5 -60q0 -39 30.5 -63.5t80.5 -24.5q38 0 76.5 7.5t78.5 23.5v-156q-54 -11 -101.5 -16.5t-88.5 -5.5q-114 0 -176 46t-62 132q0 53 27.5 107.5t83.5 115.5zM700 526q-164 0 -229 -42t-65 -144q0 -76 45 -121t122 -45 q116 0 180 87.5t64 244.5v20h-117zM1108 639v-639h-291v125q-53 -74 -136 -114t-183 -40q-191 0 -297.5 101t-106.5 282q0 196 127 289.5t393 93.5h203v49q0 71 -51.5 107.5t-151.5 36.5q-105 0 -203.5 -26.5t-205.5 -84.5v250q97 40 197 59t212 19q273 0 383.5 -111 t110.5 -397z" />
<glyph unicode="&#x106;" d="M152 0zM1081 43q-70 -36 -147 -54t-162 -18q-302 0 -461 199t-159 575q0 377 159 576t461 199q85 0 163 -18t146 -54v-328q-76 70 -147.5 102.5t-147.5 32.5q-162 0 -244.5 -128.5t-82.5 -381.5q0 -252 82.5 -380.5t244.5 -128.5q76 0 147.5 32.5t147.5 102.5v-328z M805 1899h284l-286 -264h-197z" />
<glyph unicode="&#x107;" d="M168 0zM1061 57q-74 -43 -159 -64.5t-183 -21.5q-259 0 -405 156t-146 432q0 277 147 433.5t406 156.5q90 0 173.5 -21t166.5 -65v-268q-64 55 -140.5 84.5t-158.5 29.5q-143 0 -220 -91t-77 -259t77 -258t220 -90q85 0 159 28.5t140 86.5v-269zM854 1638h282l-368 -376 h-197z" />
<glyph unicode="&#x108;" d="M152 0zM617 1899h309l223 -264h-178l-199 161l-198 -161h-178zM1081 43q-70 -36 -147 -54t-162 -18q-302 0 -461 199t-159 575q0 377 159 576t461 199q85 0 163 -18t146 -54v-328q-76 70 -147.5 102.5t-147.5 32.5q-162 0 -244.5 -128.5t-82.5 -381.5q0 -252 82.5 -380.5 t244.5 -128.5q76 0 147.5 32.5t147.5 102.5v-328z" />
<glyph unicode="&#x109;" d="M168 0zM601 1638h241l256 -376h-178l-199 225l-198 -225h-178zM1061 57q-74 -43 -159 -64.5t-183 -21.5q-259 0 -405 156t-146 432q0 277 147 433.5t406 156.5q90 0 173.5 -21t166.5 -65v-268q-64 55 -140.5 84.5t-158.5 29.5q-143 0 -220 -91t-77 -259t77 -258t220 -90 q85 0 159 28.5t140 86.5v-269z" />
<glyph unicode="&#x10a;" d="M152 0zM1081 43q-70 -36 -147 -54t-162 -18q-302 0 -461 199t-159 575q0 377 159 576t461 199q85 0 163 -18t146 -54v-328q-76 70 -147.5 102.5t-147.5 32.5q-162 0 -244.5 -128.5t-82.5 -381.5q0 -252 82.5 -380.5t244.5 -128.5q76 0 147.5 32.5t147.5 102.5v-328z M579 1899h275v-246h-275v246z" />
<glyph unicode="&#x10b;" d="M168 0zM1061 57q-74 -43 -159 -64.5t-183 -21.5q-259 0 -405 156t-146 432q0 277 147 433.5t406 156.5q90 0 173.5 -21t166.5 -65v-268q-64 55 -140.5 84.5t-158.5 29.5q-143 0 -220 -91t-77 -259t77 -258t220 -90q85 0 159 28.5t140 86.5v-269zM554 1585h275v-246h-275 v246z" />
<glyph unicode="&#x10c;" d="M152 0zM1081 43q-70 -36 -147 -54t-162 -18q-302 0 -461 199t-159 575q0 377 159 576t461 199q85 0 163 -18t146 -54v-328q-76 70 -147.5 102.5t-147.5 32.5q-162 0 -244.5 -128.5t-82.5 -381.5q0 -252 82.5 -380.5t244.5 -128.5q76 0 147.5 32.5t147.5 102.5v-328z M598 1635l-221 264h178l198 -162l199 162h178l-223 -264h-309z" />
<glyph unicode="&#x10d;" d="M168 0zM1061 57q-74 -43 -159 -64.5t-183 -21.5q-259 0 -405 156t-146 432q0 277 147 433.5t406 156.5q90 0 173.5 -21t166.5 -65v-268q-64 55 -140.5 84.5t-158.5 29.5q-143 0 -220 -91t-77 -259t77 -258t220 -90q85 0 159 28.5t140 86.5v-269zM598 1262l-256 376h178 l198 -227l199 227h178l-256 -376h-241z" />
<glyph unicode="&#x10e;" d="M137 0zM432 1227v-961h80q174 0 248 109.5t74 372.5q0 261 -74 370t-248 109h-80zM137 1493h316q366 0 527 -174.5t161 -570.5q0 -397 -161 -572.5t-527 -175.5h-316v1493zM448 1653l-221 264h178l198 -162l199 162h178l-223 -264h-309z" />
<glyph unicode="&#x10f;" d="M90 0zM1168.17 1555.49h288.3l-164.597 -382.999h-201.401zM791 961v595h292v-1556h-292v166q-47 -97 -121.5 -146t-175.5 -49q-192 0 -298 154t-106 434q0 284 107.5 436t306.5 152q90 0 161.5 -46.5t125.5 -139.5zM383 557q0 -162 54 -254t149 -92t150 92t55 254 t-55 254t-150 92t-149 -92t-54 -254z" />
<glyph unicode="&#x110;" d="M0 0zM432 1227v-326h211v-237h-211v-398h80q174 0 248 109.5t74 372.5q0 261 -74 370t-248 109h-80zM137 1493h316q366 0 527 -174.5t161 -570.5q0 -397 -161 -572.5t-527 -175.5h-316v664h-137v237h137v592z" />
<glyph unicode="&#x111;" d="M791 961v290h-306v189h306v116h292v-116h146v-189h-146v-1251h-292v166q-47 -97 -121.5 -146t-175.5 -49q-192 0 -298 154t-106 434q0 284 107.5 436t306.5 152q90 0 161.5 -46.5t125.5 -139.5zM383 557q0 -162 54 -254t149 -92t150 92t55 254t-55 254t-150 92t-149 -92 t-54 -254z" />
<glyph unicode="&#x112;" d="M168 0zM332 1870h631v-188h-631v188zM1098 0h-930v1493h930v-260h-635v-322h575v-260h-575v-391h635v-260z" />
<glyph unicode="&#x113;" d="M92 0zM340 1556h631v-188h-631v188zM1102 55q-102 -42 -208 -63t-224 -21q-281 0 -429.5 150.5t-148.5 433.5q0 274 143 433t390 159q249 0 386.5 -147.5t137.5 -415.5v-119h-759q1 -132 78 -197t230 -65q101 0 199 29t205 92v-269zM854 685q-2 116 -59.5 175.5 t-169.5 59.5q-101 0 -161 -61.5t-71 -174.5z" />
<glyph unicode="&#x114;" d="M168 0zM1098 0h-930v1493h930v-260h-635v-322h575v-260h-575v-391h635v-260zM312 1899h141q20 -60 69 -90.5t125 -30.5q77 0 125 30t68 91h143q-15 -129 -101.5 -196.5t-234.5 -67.5q-147 0 -233.5 67.5t-101.5 196.5z" />
<glyph unicode="&#x115;" d="M92 0zM1102 55q-102 -42 -208 -63t-224 -21q-281 0 -429.5 150.5t-148.5 433.5q0 274 143 433t390 159q249 0 386.5 -147.5t137.5 -415.5v-119h-759q1 -132 78 -197t230 -65q101 0 199 29t205 92v-269zM854 685q-2 116 -59.5 175.5t-169.5 59.5q-101 0 -161 -61.5 t-71 -174.5zM320 1606h141q11 -69 61 -106.5t133 -37.5t132.5 37t60.5 107h143q-6 -144 -92.5 -220.5t-243.5 -76.5q-156 0 -242.5 76.5t-92.5 220.5z" />
<glyph unicode="&#x116;" d="M168 0zM1098 0h-930v1493h930v-260h-635v-322h575v-260h-575v-391h635v-260zM510 1899h275v-246h-275v246z" />
<glyph unicode="&#x117;" d="M92 0zM1102 55q-102 -42 -208 -63t-224 -21q-281 0 -429.5 150.5t-148.5 433.5q0 274 143 433t390 159q249 0 386.5 -147.5t137.5 -415.5v-119h-759q1 -132 78 -197t230 -65q101 0 199 29t205 92v-269zM854 685q-2 116 -59.5 175.5t-169.5 59.5q-101 0 -161 -61.5 t-71 -174.5zM518 1585h275v-246h-275v246z" />
<glyph unicode="&#x118;" d="M168 0zM782 0h141q-53 -71 -71.5 -106t-18.5 -60q0 -39 30.5 -63.5t80.5 -24.5q38 0 76.5 7.5t78.5 23.5v-156q-54 -11 -101.5 -16.5t-88.5 -5.5q-114 0 -176 46t-62 132q0 53 27.5 107.5t83.5 115.5zM1098 0h-930v1493h930v-260h-635v-322h575v-260h-575v-391h635v-260z " />
<glyph unicode="&#x119;" d="M92 0zM788 0h141q-53 -71 -71.5 -106t-18.5 -60q0 -39 30.5 -63.5t80.5 -24.5q38 0 76.5 7.5t78.5 23.5v-156q-54 -11 -101.5 -16.5t-88.5 -5.5q-114 0 -176 46t-62 132q0 53 27.5 107.5t83.5 115.5zM1102 55q-102 -42 -208 -63t-224 -21q-281 0 -429.5 150.5 t-148.5 433.5q0 274 143 433t390 159q249 0 386.5 -147.5t137.5 -415.5v-119h-759q1 -132 78 -197t230 -65q101 0 199 29t205 92v-269zM854 685q-2 116 -59.5 175.5t-169.5 59.5q-101 0 -161 -61.5t-71 -174.5z" />
<glyph unicode="&#x11a;" d="M168 0zM1098 0h-930v1493h930v-260h-635v-322h575v-260h-575v-391h635v-260zM514 1635l-221 264h178l198 -162l199 162h178l-223 -264h-309z" />
<glyph unicode="&#x11b;" d="M92 0zM1102 55q-102 -42 -208 -63t-224 -21q-281 0 -429.5 150.5t-148.5 433.5q0 274 143 433t390 159q249 0 386.5 -147.5t137.5 -415.5v-119h-759q1 -132 78 -197t230 -65q101 0 199 29t205 92v-269zM854 685q-2 116 -59.5 175.5t-169.5 59.5q-101 0 -161 -61.5 t-71 -174.5zM513 1267l-256 376h178l198 -227l199 227h178l-256 -376h-241z" />
<glyph unicode="&#x11c;" d="M117 0zM582 1899h309l223 -264h-178l-199 161l-198 -161h-178zM872 270v285h-202v248h460v-684q-85 -73 -187.5 -110.5t-219.5 -37.5q-290 0 -448 201.5t-158 572.5q0 377 159.5 576t460.5 199q90 0 177 -25.5t163 -73.5v-327q-62 80 -142.5 120.5t-176.5 40.5 q-168 0 -251 -126.5t-83 -383.5q0 -249 80 -379t233 -130q46 0 80 8.5t55 25.5z" />
<glyph unicode="&#x11d;" d="M98 0zM476 1638h241l256 -376h-178l-199 225l-198 -225h-178zM803 578q0 150 -57 240.5t-150 90.5q-92 0 -148.5 -90t-56.5 -241q0 -152 56.5 -242t148.5 -90q93 0 150 90.5t57 241.5zM1096 84q0 -269 -121.5 -388.5t-394.5 -119.5q-92 0 -182 13.5t-183 41.5v269 q83 -46 169 -68t177 -22q124 0 183 58.5t59 182.5v121q-43 -80 -114 -119t-173 -39q-192 0 -305 150t-113 407q0 266 113 422t303 156q96 0 171 -45t118 -127v143h293v-1036z" />
<glyph unicode="&#x11e;" d="M117 0zM872 270v285h-202v248h460v-684q-85 -73 -187.5 -110.5t-219.5 -37.5q-290 0 -448 201.5t-158 572.5q0 377 159.5 576t460.5 199q90 0 177 -25.5t163 -73.5v-327q-62 80 -142.5 120.5t-176.5 40.5q-168 0 -251 -126.5t-83 -383.5q0 -249 80 -379t233 -130 q46 0 80 8.5t55 25.5zM331 1899h141q20 -60 69 -90.5t125 -30.5q77 0 125 30t68 91h143q-15 -129 -101.5 -196.5t-234.5 -67.5q-147 0 -233.5 67.5t-101.5 196.5z" />
<glyph unicode="&#x11f;" d="M98 0zM803 578q0 150 -57 240.5t-150 90.5q-92 0 -148.5 -90t-56.5 -241q0 -152 56.5 -242t148.5 -90q93 0 150 90.5t57 241.5zM1096 84q0 -269 -121.5 -388.5t-394.5 -119.5q-92 0 -182 13.5t-183 41.5v269q83 -46 169 -68t177 -22q124 0 183 58.5t59 182.5v121 q-43 -80 -114 -119t-173 -39q-192 0 -305 150t-113 407q0 266 113 422t303 156q96 0 171 -45t118 -127v143h293v-1036zM281 1606h141q11 -69 61 -106.5t133 -37.5t132.5 37t60.5 107h143q-6 -144 -92.5 -220.5t-243.5 -76.5q-156 0 -242.5 76.5t-92.5 220.5z" />
<glyph unicode="&#x120;" d="M117 0zM872 270v285h-202v248h460v-684q-85 -73 -187.5 -110.5t-219.5 -37.5q-290 0 -448 201.5t-158 572.5q0 377 159.5 576t460.5 199q90 0 177 -25.5t163 -73.5v-327q-62 80 -142.5 120.5t-176.5 40.5q-168 0 -251 -126.5t-83 -383.5q0 -249 80 -379t233 -130 q46 0 80 8.5t55 25.5zM529 1899h275v-246h-275v246z" />
<glyph unicode="&#x121;" d="M98 0zM803 578q0 150 -57 240.5t-150 90.5q-92 0 -148.5 -90t-56.5 -241q0 -152 56.5 -242t148.5 -90q93 0 150 90.5t57 241.5zM1096 84q0 -269 -121.5 -388.5t-394.5 -119.5q-92 0 -182 13.5t-183 41.5v269q83 -46 169 -68t177 -22q124 0 183 58.5t59 182.5v121 q-43 -80 -114 -119t-173 -39q-192 0 -305 150t-113 407q0 266 113 422t303 156q96 0 171 -45t118 -127v143h293v-1036zM479 1585h275v-246h-275v246z" />
<glyph unicode="&#x122;" d="M117 0zM627 -187h282l-177 -306h-194zM872 270v285h-202v248h460v-684q-85 -73 -187.5 -110.5t-219.5 -37.5q-290 0 -448 201.5t-158 572.5q0 377 159.5 576t460.5 199q90 0 177 -25.5t163 -73.5v-327q-62 80 -142.5 120.5t-176.5 40.5q-168 0 -251 -126.5t-83 -383.5 q0 -249 80 -379t233 -130q46 0 80 8.5t55 25.5z" />
<glyph unicode="&#x123;" d="M98 0zM737 1259h-282l177 306h194zM803 578q0 150 -57 240.5t-150 90.5q-92 0 -148.5 -90t-56.5 -241q0 -152 56.5 -242t148.5 -90q93 0 150 90.5t57 241.5zM1096 84q0 -269 -121.5 -388.5t-394.5 -119.5q-92 0 -182 13.5t-183 41.5v269q83 -46 169 -68t177 -22 q124 0 183 58.5t59 182.5v121q-43 -80 -114 -119t-173 -39q-192 0 -305 150t-113 407q0 266 113 422t303 156q96 0 171 -45t118 -127v143h293v-1036z" />
<glyph unicode="&#x124;" d="M137 0zM461 1899h309l223 -264h-178l-199 161l-198 -161h-178zM137 1493h295v-569h369v569h295v-1493h-295v664h-369v-664h-295v1493z" />
<glyph unicode="&#x125;" d="M0 0zM160 1899h309l223 -264h-178l-199 161l-198 -161h-178zM1071 727v-727h-291v682q0 121 -34.5 173t-112.5 52q-80 0 -125 -70.5t-45 -195.5v-641h-291v1556h291v-604q31 93 106 144t181 51q159 0 240 -105.5t81 -314.5z" />
<glyph unicode="&#x126;" d="M137 1493h295v-224h369v224h294v-224h135v-164h-135v-1105h-294v664h-369v-664h-295v1105h-134v164h134v224zM432 1105v-181h369v181h-369z" />
<glyph unicode="&#x127;" d="M1071 727v-727h-291v682q0 121 -34.5 173t-112.5 52q-80 0 -125 -71q-45 -70 -45 -195v-641h-291v1270h-160v164h160v122h291v-122h277v-164h-277v-318q31 93 106 144t181 51q159 0 240 -105q81 -106 81 -315z" />
<glyph unicode="&#x128;" d="M172 0zM618 1684l-54 34q-5 3 -12 7q-45 26 -73 26q-31 0 -51 -30t-20 -80v-6h-140v30q0 106 54.5 171t142.5 65q36 0 73.5 -12.5t75.5 -36.5l60 -39q21 -14 40.5 -21.5t35.5 -7.5q36 0 55.5 30t19.5 87h140q0 -5 -1 -15t-1 -16q0 -106 -53.5 -170.5t-141.5 -64.5 q-37 0 -72.5 11t-77.5 38zM172 1233v260h889v-260h-297v-973h297v-260h-889v260h297v973h-297z" />
<glyph unicode="&#x129;" d="M143 0zM618 1364l-55 37l-12 8q-43 29 -70 29q-36 0 -54.5 -31t-18.5 -90v-8h-140q0 136 51.5 210t145.5 74q36 0 72 -13.5t77 -43.5l62 -43q21 -15 39.5 -23t34.5 -8q36 0 55.5 31.5t19.5 89.5v8h140q0 -136 -51.5 -210t-145.5 -74q-36 0 -69 12t-81 45zM221 1120h580 v-895h364v-225h-1022v225h365v670h-287v225z" />
<glyph unicode="&#x12a;" d="M172 0zM301 1870h631v-188h-631v188zM172 1233v260h889v-260h-297v-973h297v-260h-889v260h297v973h-297z" />
<glyph unicode="&#x12b;" d="M143 0zM301 1556h631v-188h-631v188zM221 1120h580v-895h364v-225h-1022v225h365v670h-287v225z" />
<glyph unicode="&#x12c;" d="M172 0zM172 1233v260h889v-260h-297v-973h297v-260h-889v260h297v973h-297zM281 1899h141q20 -60 69 -90.5t125 -30.5q77 0 125 30t68 91h143q-15 -129 -101.5 -196.5t-234.5 -67.5q-147 0 -233.5 67.5t-101.5 196.5z" />
<glyph unicode="&#x12d;" d="M143 0zM221 1120h580v-895h364v-225h-1022v225h365v670h-287v225zM281 1606h141q11 -69 61 -106.5t133 -37.5t132.5 37t60.5 107h143q-6 -144 -92.5 -220.5t-243.5 -76.5q-156 0 -242.5 76.5t-92.5 220.5z" />
<glyph unicode="&#x12e;" d="M172 0zM172 1233v260h889v-260h-297v-973h297v-260h-889v260h297v973h-297zM623 0h141q-53 -71 -71.5 -106t-18.5 -60q0 -39 30.5 -63.5t80.5 -24.5q38 0 76.5 7.5t78.5 23.5v-156q-54 -11 -101.5 -16.5t-88.5 -5.5q-114 0 -176 46t-62 132q0 53 27.5 107.5t83.5 115.5z " />
<glyph unicode="&#x12f;" d="M143 0zM221 1120h580v-895h364v-225h-1022v225h365v670h-287v225zM508 1665h293v-342h-293v342zM660 0h141q-53 -71 -71.5 -106t-18.5 -60q0 -39 30.5 -63.5t80.5 -24.5q38 0 76.5 7.5t78.5 23.5v-156q-54 -11 -101.5 -16.5t-88.5 -5.5q-114 0 -176 46t-62 132 q0 53 27.5 107.5t83.5 115.5z" />
<glyph unicode="&#x130;" d="M172 0zM172 1233v260h889v-260h-297v-973h297v-260h-889v260h297v973h-297zM479 1899h275v-246h-275v246z" />
<glyph unicode="&#x131;" d="M221 1120h580v-895h364v-225h-1022v225h365v670h-287v225z" />
<glyph unicode="&#x132;" d="M574 77v342q63 -88 134 -134t143 -46q85 0 124 58q40 58 40 185v754h-264v260h479v-1014q0 -273 -83 -390q-84 -118 -276 -118q-69 0 -144.5 26t-152.5 77zM-9 1233v260h569v-260h-190v-973h190v-260h-569v260h190v973h-190z" />
<glyph unicode="&#x133;" d="M1233 33q0 -252 -90.5 -359.5t-300.5 -107.5h-316v225h234q98 0 139 55t41 187v852h-297v225h590v-1077zM1233 1313h-293v342h293v-342zM64 1120h405v-895h255v-225h-714v225h255v670h-201v225zM265 1665h204v-342h-204v342z" />
<glyph unicode="&#x134;" d="M109 0zM525 1899h309l223 -264h-178l-199 161l-198 -161h-178zM109 74v342q86 -88 183.5 -134t196.5 -46q116 0 170 58t54 185v754h-361v260h656v-1014q0 -273 -114.5 -390.5t-377.5 -117.5q-95 0 -198.5 26t-208.5 77z" />
<glyph unicode="&#x135;" d="M143 0zM496 1638h241l256 -376h-178l-199 225l-198 -225h-178zM850 43q0 -252 -90.5 -359.5t-300.5 -107.5h-316v225h234q98 0 139 55t41 187v852h-297v225h590v-1077z" />
<glyph unicode="&#x136;" d="M117 0zM575 -158h282l-177 -306h-194zM117 1493h295v-590l462 590h334l-471 -588l488 -905h-328l-354 672l-131 -166v-506h-295v1493z" />
<glyph unicode="&#x137;" d="M174 0zM589 -158h282l-177 -306h-194zM174 1556h293v-817l352 381h355l-424 -418l448 -702h-324l-307 524l-100 -96v-428h-293v1556z" />
<glyph unicode="&#x138;" d="M174 1120h293v-381l352 381h355l-424 -418l448 -702h-324l-307 524l-100 -96v-428h-293v1120z" />
<glyph unicode="&#x139;" d="M225 0zM669 1900h284l-286 -264h-197zM225 0v1493h295v-1233h631v-260h-926z" />
<glyph unicode="&#x13a;" d="M90 0zM669 1900h284l-286 -264h-197zM387 467v864h-297v225h590v-1089q0 -132 41 -187t139 -55h234v-225h-316q-209 0 -300 108t-91 359z" />
<glyph unicode="&#x13b;" d="M225 0zM591 -158h282l-177 -306h-194zM225 0v1493h295v-1233h631v-260h-926z" />
<glyph unicode="&#x13c;" d="M90 0zM465 -158h282l-177 -306h-194zM387 467v864h-297v225h590v-1089q0 -132 41 -187t139 -55h234v-225h-316q-209 0 -300 108t-91 359z" />
<glyph unicode="&#x13d;" d="M225 0zM869 1493h282l-161 -376h-197zM225 0v1493h295v-1233h631v-260h-926z" />
<glyph unicode="&#x13e;" d="M90 0zM908 1556h282l-161 -376h-197zM387 467v864h-297v225h590v-1089q0 -132 41 -187t139 -55h234v-225h-316q-209 0 -300 108t-91 359z" />
<glyph unicode="&#x13f;" d="M225 0zM837 1067h333v-365h-333v365zM225 0v1493h295v-1233h631v-260h-926z" />
<glyph unicode="&#x140;" d="M90 0zM890 1067h333v-365h-333v365zM387 467v864h-297v225h590v-1089q0 -132 41 -187t139 -55h234v-225h-316q-209 0 -300 108t-91 359z" />
<glyph unicode="&#x141;" d="M225 0v537l-151 -111l-113 154l264 188v725h295v-520l275 194l112 -153l-387 -273v-481h631v-260h-926z" />
<glyph unicode="&#x142;" d="M410 467v166l-273 -195l-100 162l373 264v467h-295v225h587v-485l295 209l103 -160l-398 -280v-373q0 -132 41.5 -187t139.5 -55h233v-225h-315q-209 0 -300 108t-91 359z" />
<glyph unicode="&#x143;" d="M119 0zM699 1900h284l-286 -264h-197zM119 1493h317l416 -1085v1085h260v-1493h-315l-418 1085v-1085h-260v1493z" />
<glyph unicode="&#x144;" d="M172 0zM750 1645h282l-368 -376h-197zM1071 727v-727h-291v682q0 122 -34.5 174.5t-112.5 52.5q-79 0 -124.5 -71t-45.5 -197v-641h-291v1120h291v-168q31 93 106 144t181 51q159 0 240 -105.5t81 -314.5z" />
<glyph unicode="&#x145;" d="M119 0zM519 -158h282l-177 -306h-194zM119 1493h317l416 -1085v1085h260v-1493h-315l-418 1085v-1085h-260v1493z" />
<glyph unicode="&#x146;" d="M172 0zM525 -158h282l-177 -306h-194zM1071 727v-727h-291v682q0 122 -34.5 174.5t-112.5 52.5q-79 0 -124.5 -71t-45.5 -197v-641h-291v1120h291v-168q31 93 106 144t181 51q159 0 240 -105.5t81 -314.5z" />
<glyph unicode="&#x147;" d="M119 0zM119 1493h317l416 -1085v1085h260v-1493h-315l-418 1085v-1085h-260v1493zM502 1635l-221 264h178l198 -162l199 162h178l-223 -264h-309z" />
<glyph unicode="&#x148;" d="M172 0zM1071 727v-727h-291v682q0 122 -34.5 174.5t-112.5 52.5q-79 0 -124.5 -71t-45.5 -197v-641h-291v1120h291v-168q31 93 106 144t181 51q159 0 240 -105.5t81 -314.5zM532 1262l-256 376h178l198 -227l199 227h178l-256 -376h-241z" />
<glyph unicode="&#x149;" d="M0 0zM1230 727v-727h-291v682q0 122 -34.5 174.5t-112.5 52.5q-79 0 -124.5 -71t-45.5 -197v-641h-291v1120h291v-168q31 93 106 144t181 51q159 0 240 -105.5t81 -314.5zM-110 903zM-12 1556h314v-270l-197 -383h-215l98 383v270z" />
<glyph unicode="&#x14a;" d="M1125 942v-884q0 -266 -92 -376q-92 -108 -300 -108h-121v227h37q100 0 141 55t41 188v971q0 129 -47 184.5t-153 55.5q-109 0 -168 -75q-62 -78 -62 -208v-972h-295v1493h295v-240q37 128 126.5 198.5t215.5 70.5q189 0 285.5 -145.5t96.5 -434.5z" />
<glyph unicode="&#x14b;" d="M1071 727v-684q0 -252 -91 -359q-90 -108 -300 -108h-121v225h39q100 0 141 55t41 187v639q0 122 -34 174q-35 53 -113 53q-79 0 -125 -71q-45 -71 -45 -197v-641h-291v1120h291v-168q31 93 106 144t181 51q159 0 240 -105q81 -106 81 -315z" />
<glyph unicode="&#x14c;" d="M92 0zM301 1870h631v-188h-631v188zM616 1255q-113 0 -165 -120.5t-52 -389.5q0 -268 52 -388.5t165 -120.5q114 0 166 120.5t52 388.5q0 269 -52 389.5t-166 120.5zM92 745q0 383 132.5 579t391.5 196q260 0 392.5 -196t132.5 -579q0 -382 -132.5 -578t-392.5 -196 q-259 0 -391.5 196t-132.5 578z" />
<glyph unicode="&#x14d;" d="M98 0zM301 1556h631v-188h-631v188zM616 909q-105 0 -165 -92.5t-60 -257.5t60 -257.5t165 -92.5q106 0 166 92.5t60 257.5t-60 257.5t-166 92.5zM98 559q0 271 140.5 429.5t377.5 158.5q238 0 378.5 -158.5t140.5 -429.5t-140.5 -429.5t-378.5 -158.5 q-237 0 -377.5 158.5t-140.5 429.5z" />
<glyph unicode="&#x14e;" d="M92 0zM616 1255q-113 0 -165 -120.5t-52 -389.5q0 -268 52 -388.5t165 -120.5q114 0 166 120.5t52 388.5q0 269 -52 389.5t-166 120.5zM92 745q0 383 132.5 579t391.5 196q260 0 392.5 -196t132.5 -579q0 -382 -132.5 -578t-392.5 -196q-259 0 -391.5 196t-132.5 578z M281 1899h141q20 -60 69 -90.5t125 -30.5q77 0 125 30t68 91h143q-15 -129 -101.5 -196.5t-234.5 -67.5q-147 0 -233.5 67.5t-101.5 196.5z" />
<glyph unicode="&#x14f;" d="M98 0zM616 909q-105 0 -165 -92.5t-60 -257.5t60 -257.5t165 -92.5q106 0 166 92.5t60 257.5t-60 257.5t-166 92.5zM98 559q0 271 140.5 429.5t377.5 158.5q238 0 378.5 -158.5t140.5 -429.5t-140.5 -429.5t-378.5 -158.5q-237 0 -377.5 158.5t-140.5 429.5zM281 1606 h141q11 -69 61 -106.5t133 -37.5t132.5 37t60.5 107h143q-6 -144 -92.5 -220.5t-243.5 -76.5q-156 0 -242.5 76.5t-92.5 220.5z" />
<glyph unicode="&#x150;" d="M92 0zM616 1255q-113 0 -165 -120.5t-52 -389.5q0 -268 52 -388.5t165 -120.5q114 0 166 120.5t52 388.5q0 269 -52 389.5t-166 120.5zM92 745q0 383 132.5 579t391.5 196q260 0 392.5 -196t132.5 -579q0 -382 -132.5 -578t-392.5 -196q-259 0 -391.5 196t-132.5 578z M838 1899h284l-286 -264h-197zM463 1899h284l-286 -264h-197z" />
<glyph unicode="&#x151;" d="M98 0zM616 909q-105 0 -165 -92.5t-60 -257.5t60 -257.5t165 -92.5q106 0 166 92.5t60 257.5t-60 257.5t-166 92.5zM98 559q0 271 140.5 429.5t377.5 158.5q238 0 378.5 -158.5t140.5 -429.5t-140.5 -429.5t-378.5 -158.5q-237 0 -377.5 158.5t-140.5 429.5zM854 1638 h231l-272 -376h-174zM492 1638h217l-248 -376h-164z" />
<glyph unicode="&#x152;" d="M1217 260v-260h-584q-324 0 -444.5 155.5t-120.5 589.5q0 436 121 592t444 156h573v-260h-332v-311h302v-260h-302v-402h343zM569 1233q-123 0 -169 -89t-46 -399q0 -311 45.5 -398t169.5 -87h52v973h-52z" />
<glyph unicode="&#x153;" d="M1210 479h-450q0 -144 49.5 -219.5t144.5 -75.5q60 0 120 29.5t120 87.5v-244q-49 -44 -111 -65t-147 -21q-98 0 -169 37t-118 111q-43 -77 -109.5 -112.5t-166.5 -35.5q-190 0 -274.5 138t-84.5 450q0 315 84.5 451.5t274.5 136.5q99 0 161 -29.5t103 -95.5 q28 60 93 92.5t157 32.5q177 0 250 -119t73 -422v-127zM985 690v35q0 116 -25.5 162.5t-87.5 46.5t-87 -47.5t-25 -173.5v-23h225zM520 559q0 242 -29 308.5t-106 66.5q-78 0 -107.5 -66.5t-29.5 -308.5t29.5 -308.5t107.5 -66.5q77 0 106 67t29 308z" />
<glyph unicode="&#x154;" d="M133 0zM669 1900h284l-286 -264h-197zM807 705q44 -9 76.5 -41.5t79.5 -126.5l270 -537h-324l-180 377q-8 16 -21 44q-79 169 -186 169h-94v-590h-295v1493h426q288 0 413.5 -102t125.5 -332q0 -154 -75 -245t-216 -109zM428 1245v-407h139q121 0 173.5 47.5t52.5 156.5 t-52 156t-174 47h-139z" />
<glyph unicode="&#x155;" d="M291 0zM906 1645h282l-368 -376h-197zM1151 811q-48 44 -112.5 66t-141.5 22q-93 0 -162.5 -32.5t-107.5 -94.5q-24 -38 -33.5 -92t-9.5 -164v-516h-293v1120h293v-174q43 96 132 148.5t208 52.5q60 0 117.5 -14.5t109.5 -42.5v-279z" />
<glyph unicode="&#x156;" d="M133 0zM587 -158h282l-177 -306h-194zM807 705q44 -9 76.5 -41.5t79.5 -126.5l270 -537h-324l-180 377q-8 16 -21 44q-79 169 -186 169h-94v-590h-295v1493h426q288 0 413.5 -102t125.5 -332q0 -154 -75 -245t-216 -109zM428 1245v-407h139q121 0 173.5 47.5t52.5 156.5 t-52 156t-174 47h-139z" />
<glyph unicode="&#x157;" d="M252 0zM341 -158h282l-177 -306h-194zM1151 811q-48 44 -112.5 66t-141.5 22q-93 0 -162.5 -32.5t-107.5 -94.5q-24 -38 -33.5 -92t-9.5 -164v-516h-293v1120h293v-174q43 96 132 148.5t208 52.5q60 0 117.5 -14.5t109.5 -42.5v-279z" />
<glyph unicode="&#x158;" d="M133 0zM807 705q44 -9 76.5 -41.5t79.5 -126.5l270 -537h-324l-180 377q-8 16 -21 44q-79 169 -186 169h-94v-590h-295v1493h426q288 0 413.5 -102t125.5 -332q0 -154 -75 -245t-216 -109zM428 1245v-407h139q121 0 173.5 47.5t52.5 156.5t-52 156t-174 47h-139z M430 1635l-221 264h178l198 -162l199 162h178l-223 -264h-309z" />
<glyph unicode="&#x159;" d="M291 0zM1151 811q-48 44 -112.5 66t-141.5 22q-93 0 -162.5 -32.5t-107.5 -94.5q-24 -38 -33.5 -92t-9.5 -164v-516h-293v1120h293v-174q43 96 132 148.5t208 52.5q60 0 117.5 -14.5t109.5 -42.5v-279zM598 1262l-256 376h178l198 -227l199 227h178l-256 -376h-241z" />
<glyph unicode="&#x15a;" d="M129 0zM699 1900h284l-286 -264h-197zM510 655q-223 85 -302 178.5t-79 251.5q0 203 130 319t357 116q103 0 206 -23.5t204 -69.5v-288q-95 67 -193 102t-194 35q-107 0 -164 -43t-57 -123q0 -62 41.5 -102.5t173.5 -89.5l127 -48q180 -66 265 -175t85 -275 q0 -226 -133.5 -337.5t-403.5 -111.5q-111 0 -222.5 26.5t-215.5 78.5v305q118 -84 228.5 -125t218.5 -41q109 0 169 49.5t60 138.5q0 67 -40 117.5t-116 79.5z" />
<glyph unicode="&#x15b;" d="M172 0zM750 1645h282l-368 -376h-197zM991 1085v-256q-81 52 -168.5 78.5t-175.5 26.5q-98 0 -148 -28.5t-50 -84.5q0 -80 214 -130l11 -3l84 -20q160 -38 234.5 -122.5t74.5 -228.5q0 -173 -113.5 -259.5t-341.5 -86.5q-101 0 -207 17.5t-215 52.5v256q97 -55 197.5 -84 t194.5 -29q103 0 156 30t53 87q0 56 -37.5 86t-178.5 64l-81 18q-168 38 -245 119t-77 217q0 162 117 252t329 90q95 0 189.5 -15.5t183.5 -46.5z" />
<glyph unicode="&#x15c;" d="M129 0zM461 1899h309l223 -264h-178l-199 161l-198 -161h-178zM510 655q-223 85 -302 178.5t-79 251.5q0 203 130 319t357 116q103 0 206 -23.5t204 -69.5v-288q-95 67 -193 102t-194 35q-107 0 -164 -43t-57 -123q0 -62 41.5 -102.5t173.5 -89.5l127 -48 q180 -66 265 -175t85 -275q0 -226 -133.5 -337.5t-403.5 -111.5q-111 0 -222.5 26.5t-215.5 78.5v305q118 -84 228.5 -125t218.5 -41q109 0 169 49.5t60 138.5q0 67 -40 117.5t-116 79.5z" />
<glyph unicode="&#x15d;" d="M172 0zM496 1638h241l256 -376h-178l-199 225l-198 -225h-178zM991 1085v-256q-81 52 -168.5 78.5t-175.5 26.5q-98 0 -148 -28.5t-50 -84.5q0 -80 214 -130l11 -3l84 -20q160 -38 234.5 -122.5t74.5 -228.5q0 -173 -113.5 -259.5t-341.5 -86.5q-101 0 -207 17.5 t-215 52.5v256q97 -55 197.5 -84t194.5 -29q103 0 156 30t53 87q0 56 -37.5 86t-178.5 64l-81 18q-168 38 -245 119t-77 217q0 162 117 252t329 90q95 0 189.5 -15.5t183.5 -46.5z" />
<glyph unicode="&#x15e;" d="M129 0zM707 0q57 -62 84.5 -115t27.5 -100q0 -95 -61.5 -140.5t-188.5 -45.5q-48 0 -98.5 6.5t-103.5 19.5v156q45 -17 87 -26t78 -9q58 0 90.5 23t32.5 63q0 26 -21 67t-67 101h140zM510 655q-223 85 -302 178.5t-79 251.5q0 203 130 319t357 116q103 0 206 -23.5 t204 -69.5v-288q-95 67 -193 102t-194 35q-107 0 -164 -43t-57 -123q0 -62 41.5 -102.5t173.5 -89.5l127 -48q180 -66 265 -175t85 -275q0 -226 -133.5 -337.5t-403.5 -111.5q-111 0 -222.5 26.5t-215.5 78.5v305q118 -84 228.5 -125t218.5 -41q109 0 169 49.5t60 138.5 q0 67 -40 117.5t-116 79.5z" />
<glyph unicode="&#x15f;" d="M172 0zM707 0q57 -62 84.5 -115t27.5 -100q0 -95 -61.5 -140.5t-188.5 -45.5q-48 0 -98.5 6.5t-103.5 19.5v156q45 -17 87 -26t78 -9q58 0 90.5 23t32.5 63q0 26 -21 67t-67 101h140zM991 1085v-256q-81 52 -168.5 78.5t-175.5 26.5q-98 0 -148 -28.5t-50 -84.5 q0 -80 214 -130l11 -3l84 -20q160 -38 234.5 -122.5t74.5 -228.5q0 -173 -113.5 -259.5t-341.5 -86.5q-101 0 -207 17.5t-215 52.5v256q97 -55 197.5 -84t194.5 -29q103 0 156 30t53 87q0 56 -37.5 86t-178.5 64l-81 18q-168 38 -245 119t-77 217q0 162 117 252t329 90 q95 0 189.5 -15.5t183.5 -46.5z" />
<glyph unicode="&#x160;" d="M129 0zM510 655q-223 85 -302 178.5t-79 251.5q0 203 130 319t357 116q103 0 206 -23.5t204 -69.5v-288q-95 67 -193 102t-194 35q-107 0 -164 -43t-57 -123q0 -62 41.5 -102.5t173.5 -89.5l127 -48q180 -66 265 -175t85 -275q0 -226 -133.5 -337.5t-403.5 -111.5 q-111 0 -222.5 26.5t-215.5 78.5v305q118 -84 228.5 -125t218.5 -41q109 0 169 49.5t60 138.5q0 67 -40 117.5t-116 79.5zM461 1635l-221 264h178l198 -162l199 162h178l-223 -264h-309z" />
<glyph unicode="&#x161;" d="M172 0zM991 1085v-256q-81 52 -168.5 78.5t-175.5 26.5q-98 0 -148 -28.5t-50 -84.5q0 -80 214 -130l11 -3l84 -20q160 -38 234.5 -122.5t74.5 -228.5q0 -173 -113.5 -259.5t-341.5 -86.5q-101 0 -207 17.5t-215 52.5v256q97 -55 197.5 -84t194.5 -29q103 0 156 30t53 87 q0 56 -37.5 86t-178.5 64l-81 18q-168 38 -245 119t-77 217q0 162 117 252t329 90q95 0 189.5 -15.5t183.5 -46.5zM496 1262l-256 376h178l198 -227l199 227h178l-256 -376h-241z" />
<glyph unicode="&#x162;" d="M90 0zM707 0q57 -62 84.5 -115t27.5 -100q0 -95 -61.5 -140.5t-188.5 -45.5q-48 0 -98.5 6.5t-103.5 19.5v156q45 -17 87 -26t78 -9q58 0 90.5 23t32.5 63q0 26 -21 67t-67 101h140zM764 0h-295v1235h-379v258h1053v-258h-379v-1235z" />
<glyph unicode="&#x163;" d="M111 0zM888 0q57 -62 84.5 -115t27.5 -100q0 -95 -61.5 -140.5t-188.5 -45.5q-48 0 -98.5 6.5t-103.5 19.5v156q45 -17 87 -26t78 -9q58 0 90.5 23t32.5 63q0 26 -21 67t-67 101h140zM690 1438v-318h383v-225h-383v-530q0 -75 36.5 -107.5t121.5 -32.5h225v-225h-246 q-252 0 -341 80.5t-89 298.5v516h-286v225h286v318h293z" />
<glyph unicode="&#x164;" d="M90 0zM764 0h-295v1235h-379v258h1053v-258h-379v-1235zM454 1647l-221 264h178l198 -162l199 162h178l-223 -264h-309z" />
<glyph unicode="&#x165;" d="M111 0zM690 1438v-318h383v-225h-383v-530q0 -75 36.5 -107.5t121.5 -32.5h225v-225h-246q-252 0 -341 80.5t-89 298.5v516h-286v225h286v318h293zM909 1687h282l-161 -376h-197z" />
<glyph unicode="&#x166;" d="M764 0h-295v538h-247v192h247v505h-379v258h1053v-258h-379v-505h247v-192h-247v-538z" />
<glyph unicode="&#x167;" d="M690 1438v-318h383v-225h-383v-142h184v-192h-184v-196q0 -75 36 -107q37 -33 122 -33h225v-225h-246q-252 0 -341 80q-89 81 -89 299v182h-178v192h178v142h-286v225h286v318h293z" />
<glyph unicode="&#x168;" d="M106 0zM618 1684l-54 34q-5 3 -12 7q-45 26 -73 26q-31 0 -51 -30t-20 -80v-6h-140v30q0 106 54.5 171t142.5 65q36 0 73.5 -12.5t75.5 -36.5l60 -39q21 -14 40.5 -21.5t35.5 -7.5q36 0 55.5 30t19.5 87h140q0 -5 -1 -15t-1 -16q0 -106 -53.5 -170.5t-141.5 -64.5 q-37 0 -72.5 11t-77.5 38zM106 551v942h295v-1016q0 -112 57 -175.5t158 -63.5t158 63.5t57 175.5v1016h295v-942q0 -304 -121 -442t-389 -138q-267 0 -388.5 138t-121.5 442z" />
<glyph unicode="&#x169;" d="M160 0zM618 1364l-55 37l-12 8q-43 29 -70 29q-36 0 -54.5 -31t-18.5 -90v-8h-140q0 136 51.5 210t145.5 74q36 0 72 -13.5t77 -43.5l62 -43q21 -15 39.5 -23t34.5 -8q36 0 55.5 31.5t19.5 89.5v8h140q0 -136 -51.5 -210t-145.5 -74q-36 0 -69 12t-81 45zM160 391v729 h293v-684q0 -121 34 -173t113 -52t123.5 70t44.5 196v643h293v-1120h-293v166q-31 -93 -105.5 -144t-179.5 -51q-160 0 -241.5 106t-81.5 314z" />
<glyph unicode="&#x16a;" d="M106 0zM301 1870h631v-188h-631v188zM106 551v942h295v-1016q0 -112 57 -175.5t158 -63.5t158 63.5t57 175.5v1016h295v-942q0 -304 -121 -442t-389 -138q-267 0 -388.5 138t-121.5 442z" />
<glyph unicode="&#x16b;" d="M160 0zM301 1556h631v-188h-631v188zM160 391v729h293v-684q0 -121 34 -173t113 -52t123.5 70t44.5 196v643h293v-1120h-293v166q-31 -93 -105.5 -144t-179.5 -51q-160 0 -241.5 106t-81.5 314z" />
<glyph unicode="&#x16c;" d="M106 0zM106 551v942h295v-1016q0 -112 57 -175.5t158 -63.5t158 63.5t57 175.5v1016h295v-942q0 -304 -121 -442t-389 -138q-267 0 -388.5 138t-121.5 442zM281 1899h141q20 -60 69 -90.5t125 -30.5q77 0 125 30t68 91h143q-15 -129 -101.5 -196.5t-234.5 -67.5 q-147 0 -233.5 67.5t-101.5 196.5z" />
<glyph unicode="&#x16d;" d="M160 0zM160 391v729h293v-684q0 -121 34 -173t113 -52t123.5 70t44.5 196v643h293v-1120h-293v166q-31 -93 -105.5 -144t-179.5 -51q-160 0 -241.5 106t-81.5 314zM281 1606h141q11 -69 61 -106.5t133 -37.5t132.5 37t60.5 107h143q-6 -144 -92.5 -220.5t-243.5 -76.5 q-156 0 -242.5 76.5t-92.5 220.5z" />
<glyph unicode="&#x16e;" d="M106 0zM106 551v942h295v-1016q0 -112 57 -175.5t158 -63.5t158 63.5t57 175.5v1016h295v-942q0 -304 -121 -442t-389 -138q-267 0 -388.5 138t-121.5 442zM337 1869q0 118 83 201.5t201 83.5q119 0 202 -83.5t83 -201.5t-83 -201.5t-202 -83.5q-118 0 -201 83.5 t-83 201.5zM490 1869q0 -55 38.5 -93t92.5 -38q55 0 93.5 38.5t38.5 92.5t-39 92.5t-93 38.5t-92.5 -38.5t-38.5 -92.5z" />
<glyph unicode="&#x16f;" d="M160 0zM160 391v729h293v-684q0 -121 34 -173t113 -52t123.5 70t44.5 196v643h293v-1120h-293v166q-31 -93 -105.5 -144t-179.5 -51q-160 0 -241.5 106t-81.5 314zM332 1534q0 118 83 201.5t201 83.5q119 0 202 -83.5t83 -201.5t-83 -201.5t-202 -83.5q-118 0 -201 83.5 t-83 201.5zM485 1534q0 -55 38.5 -93t92.5 -38q55 0 93.5 38.5t38.5 92.5t-39 92.5t-93 38.5t-92.5 -38.5t-38.5 -92.5z" />
<glyph unicode="&#x170;" d="M106 0zM106 551v942h295v-1016q0 -112 57 -175.5t158 -63.5t158 63.5t57 175.5v1016h295v-942q0 -304 -121 -442t-389 -138q-267 0 -388.5 138t-121.5 442zM838 1899h284l-286 -264h-197zM463 1899h284l-286 -264h-197z" />
<glyph unicode="&#x171;" d="M160 0zM160 391v729h293v-684q0 -121 34 -173t113 -52t123.5 70t44.5 196v643h293v-1120h-293v166q-31 -93 -105.5 -144t-179.5 -51q-160 0 -241.5 106t-81.5 314zM854 1638h231l-272 -376h-174zM492 1638h217l-248 -376h-164z" />
<glyph unicode="&#x172;" d="M106 0zM106 551v942h295v-1016q0 -112 57 -175.5t158 -63.5t158 63.5t57 175.5v1016h295v-942q0 -304 -121 -442t-389 -138q-267 0 -388.5 138t-121.5 442zM545 -16h141q-53 -71 -71.5 -106t-18.5 -60q0 -39 30.5 -63.5t80.5 -24.5q38 0 76.5 7.5t78.5 23.5v-156 q-54 -11 -101.5 -16.5t-88.5 -5.5q-114 0 -176 46t-62 132q0 53 27.5 107.5t83.5 115.5z" />
<glyph unicode="&#x173;" d="M160 0zM160 391v729h293v-684q0 -121 34 -173t113 -52t123.5 70t44.5 196v643h293v-1120h-293v166q-31 -93 -105.5 -144t-179.5 -51q-160 0 -241.5 106t-81.5 314zM911 0h141q-53 -71 -71.5 -106t-18.5 -60q0 -39 30.5 -63.5t80.5 -24.5q38 0 76.5 7.5t78.5 23.5v-156 q-54 -11 -101.5 -16.5t-88.5 -5.5q-114 0 -176 46t-62 132q0 53 27.5 107.5t83.5 115.5z" />
<glyph unicode="&#x174;" d="M0 0zM461 1906h309l223 -264h-178l-199 161l-198 -161h-178zM0 1493h258l107 -1096l129 709h245l150 -709l84 1096h260l-172 -1493h-275l-170 784l-159 -784h-273z" />
<glyph unicode="&#x175;" d="M0 0zM496 1645h241l256 -376h-178l-199 225l-198 -225h-178zM0 1120h244l133 -858l121 565h237l119 -565l135 858h244l-203 -1120h-278l-136 582l-135 -582h-278z" />
<glyph unicode="&#x176;" d="M8 0zM461 1906h309l223 -264h-178l-199 161l-198 -161h-178zM8 1493h318l290 -600l291 600h318l-461 -905v-588h-295v588z" />
<glyph unicode="&#x177;" d="M59 0zM497 1645h241l256 -376h-178l-199 225l-198 -225h-178zM711 -121q-59 -158 -141.5 -230.5t-200.5 -72.5h-242v223h119q90 0 132 30.5t85 141.5l22 60l-426 1089h308l256 -727l245 727h308z" />
<glyph unicode="&#x178;" d="M8 0zM8 1493h318l290 -600l291 600h318l-461 -905v-588h-295v588zM696 1899h236v-246h-236v246zM301 1899h236v-246h-236v246z" />
<glyph unicode="&#x179;" d="M115 0zM699 1900h284l-286 -264h-197zM137 1493h1010v-244l-692 -989h706v-260h-1046v244l671 989h-649v260z" />
<glyph unicode="&#x17a;" d="M162 0zM750 1645h282l-368 -376h-197zM186 1120h895v-229l-589 -672h589v-219h-919v229l590 672h-566v219z" />
<glyph unicode="&#x17b;" d="M115 0zM137 1493h1010v-244l-692 -989h706v-260h-1046v244l671 989h-649v260zM529 1899h275v-246h-275v246z" />
<glyph unicode="&#x17c;" d="M162 0zM186 1120h895v-229l-589 -672h589v-219h-919v229l590 672h-566v219zM479 1585h275v-246h-275v246z" />
<glyph unicode="&#x17d;" d="M115 0zM137 1493h1010v-244l-692 -989h706v-260h-1046v244l671 989h-649v260zM461 1635l-221 264h178l198 -162l199 162h178l-223 -264h-309z" />
<glyph unicode="&#x17e;" d="M162 0zM186 1120h895v-229l-589 -672h589v-219h-919v229l590 672h-566v219zM496 1262l-256 376h178l198 -227l199 227h178l-256 -376h-241z" />
<glyph unicode="&#x17f;" d="M739 0h-293v895h-272v225h272v78q0 202 84 280t312 78h241v-225h-229q-66 0 -89.5 -24t-25.5 -89v-1218z" />
<glyph unicode="&#x180;" d="M442 961q54 93 125.5 139.5t161.5 46.5q199 0 306.5 -152t107.5 -436q0 -280 -106 -434t-298 -154q-101 0 -176 49t-121 146v-166h-292v1270h-138v164h138v122h292v-122h298v-164h-298v-309zM850 557q0 162 -54 254t-149 92t-150 -92t-55 -254t55 -254t150 -92t149 92 t54 254z" />
<glyph unicode="&#x181;" d="M626 678v-442h45q141 0 197.5 48t56.5 167q0 121 -59 174t-195 53h-45zM626 1260v-347h45q112 0 159.5 40t47.5 132t-48.5 133.5t-158.5 41.5h-45zM396 1495h275q249 0 374.5 -94.5t125.5 -282.5q0 -144 -74 -225t-217 -94q171 -17 257.5 -115t86.5 -274 q0 -216 -130 -313t-423 -97h-330v1216q-66 0 -90.5 -23.5t-24.5 -89.5v-25h-226v59q0 202 84 280t312 78z" />
<glyph unicode="&#x182;" d="M162 0zM457 248h121q145 0 203.5 49t58.5 170t-58.5 170t-203.5 49h-121v-438zM162 1493h930v-260h-635v-299h110q309 0 444.5 -110t135.5 -357t-135.5 -357t-444.5 -110h-405v1493z" />
<glyph unicode="&#x183;" d="M739 -29q-205 0 -297 195v-166h-292v1556h799v-209h-507v-386q108 186 287 186q202 0 310 -156q104 -150 104 -432q0 -280 -106 -434t-298 -154zM850 557q0 162 -54 254t-149 92t-150 -92t-55 -254t55 -254t150 -92t149 92t54 254z" />
<glyph unicode="&#x184;" d="M500 248h121q145 0 203.5 49t58.5 170t-58.5 170t-203.5 49h-121v-438zM205 0v934l-162 134l457 425v-559h110q309 0 444.5 -110t135.5 -357t-135.5 -357t-444.5 -110h-405z" />
<glyph unicode="&#x185;" d="M895 557q0 162 -54 254t-149 92t-150 -92t-55 -254t55 -254t150 -92t149 92t54 254zM487 961q54 93 125.5 139.5t161.5 46.5q199 0 306.5 -152t107.5 -436q0 -280 -106 -434t-298 -154q-101 0 -176 49t-121 146v-166h-292v934l-150 134l442 488v-595z" />
<glyph unicode="&#x186;" d="M152 1448q68 36 146 54t163 18q302 0 461 -199t159 -576q0 -376 -159 -575t-461 -199q-85 0 -162 18t-147 54v328q76 -70 147.5 -102.5t147.5 -32.5q162 0 244.5 128.5t82.5 380.5q0 253 -82.5 381.5t-244.5 128.5q-76 0 -147.5 -32.5t-147.5 -102.5v328z" />
<glyph unicode="&#x187;" d="M786 236q148 0 295 135v-328q-140 -72 -309 -72q-302 0 -461 199t-159 575q0 547 325 711q127 64 295 64q48 0 93 -6q88 129 316 129h97v-225h-15q-92 0 -141 -55q-41 -46 -41 -187v-56q-146 135 -295 135q-162 0 -244.5 -128.5t-82.5 -381.5q0 -478 289 -507 q19 -2 38 -2z" />
<glyph unicode="&#x188;" d="M762 211q168 0 299 115v-269q-148 -86 -342 -86q-259 0 -405 156t-146 432q0 277 147 433.5t406 156.5q27 0 53 -2q16 215 88 301q90 108 300 108h121v-225h-39q-95 0 -141 -55q-35 -43 -41 -187l-1 -26v-268q-133 114 -299 114q-171 0 -246 -127q-51 -85 -51 -223 q0 -268 186 -331q51 -17 111 -17z" />
<glyph unicode="&#x189;" d="M0 0zM432 1227v-326h211v-237h-211v-398h80q174 0 248 109.5t74 372.5q0 261 -74 370t-248 109h-80zM137 1493h316q366 0 527 -174.5t161 -570.5q0 -397 -161 -572.5t-527 -175.5h-316v664h-137v237h137v592z" />
<glyph unicode="&#x18a;" d="M282 1206q-29 0 -40 -38q-15 -52 -15 -80v-24h-255v77q0 150 48 220q75 109 211 128q25 4 51 4h236q366 0 527 -174.5t161 -570.5q0 -397 -161 -572.5t-527 -175.5h-236v1206zM577 1227v-961q174 0 248 109.5t74 372.5q0 261 -74 370t-248 109z" />
<glyph unicode="&#x18b;" d="M874 678h-196q-136 0 -195 -53t-59 -174q0 -119 56.5 -167t197.5 -48h196v442zM207 1494l952 -1v-1493h-481q-293 0 -423 97t-130 313v19q3 174 75 255q6 7 23 29l43 50q140 147 412 150h196v347h-667v234z" />
<glyph unicode="&#x18c;" d="M554 -29q-192 0 -298 154t-106 434q0 282 104 432q108 156 310 156q179 0 287 -186v386h-507v209h799v-1556h-292v166q-92 -195 -297 -195zM443 557q0 -162 54 -254t149 -92t150 92t55 254t-55 254t-150 92t-149 -92t-54 -254z" />
<glyph unicode="&#x18d;" d="M905 53q145 -63 145 -214q0 -135 -126 -213q-125 -77 -349 -77q-99 0 -183 12l-10 2q-31 4 -152 34v215q12 -4 25 -8q96 -31 134 -38q90 -15 171 -15q104 0 162 34l22 15q35 25 35 69q0 102 -163 102q-238 0 -378.5 158.5t-140.5 429.5t140.5 429.5t378.5 158.5 q237 0 377.5 -158.5t140.5 -429.5q0 -263 -140 -429q-63 -75 -89 -77zM616 209q105 0 165 92.5t60 257.5t-60 257.5t-165 92.5q-106 0 -166 -92.5t-60 -257.5t60 -257.5t166 -92.5z" />
<glyph unicode="&#x18e;" d="M1098 1493v-1493h-930v260h635v391h-575v260h575v322h-635v260h930z" />
<glyph unicode="&#x18f;" d="M92 745v95h740v5q0 190 -55 300t-175 110q-76 0 -147.5 -32.5t-147.5 -102.5v328q70 36 147 54t162 18q260 0 392.5 -196t132.5 -579q0 -382 -132.5 -578t-392.5 -196q-259 0 -391.5 196t-132.5 578zM405 580q11 -175 63.5 -259.5t149.5 -84.5q100 0 147.5 88t62.5 256 h-423z" />
<glyph unicode="&#x190;" d="M453 805q-141 26 -217 110.5t-76 217.5q0 181 132 284t368 103q92 0 192 -16.5t203 -47.5v-268q-103 40 -199 61t-180 21q-110 0 -170.5 -46.5t-60.5 -129.5q0 -79 60.5 -122.5t170.5 -43.5h158v-260h-158q-128 0 -198 -62.5t-70 -177.5q0 -94 70 -149.5t190 -55.5 t229 24.5t203 71.5v-274q-100 -36 -209.5 -55t-222.5 -19q-265 0 -404 114t-139 331q0 162 84 261.5t244 127.5z" />
<glyph unicode="&#x191;" d="M1125 1233h-540v-322h483v-260h-483v-483v-125v-43q-8 -216 -91 -316q-90 -108 -300 -108h-86v225q104 0 145 55q37 50 37 187v125v1325h835v-260z" />
<glyph unicode="&#x192;" d="M798 1218v-98h344v-225h-344v-895q-6 -217 -90 -316q-92 -108 -301 -108h-316v225h234q99 0 139 55q41 56 41 187v852h-272v225h272v78q0 202 84 280t312 78h241v-225h-229q-111 1 -115 -113z" />
<glyph unicode="&#x193;" d="M658 236q93 0 135 34v285h-202v248h460v-684q-172 -148 -407 -148q-290 0 -448 201.5t-158 572.5q0 542 320 708q129 67 300 67q60 0 120 -12q10 15 20 27q90 108 300 108h97v-225h-15q-92 0 -141 -55q-41 -46 -41 -187v-82l-3 4q-125 157 -316 157q-315 0 -333 -454 q-1 -27 -1 -56q0 -412 212 -491q46 -18 101 -18z" />
<glyph unicode="&#x194;" d="M616 510zM431 762l-398 731h321l262 -481l261 481h323l-398 -731q208 -382 210 -776q2 -271 -402 -276t-406 276q-2 349 227 776zM616 510q-144 -267 -142 -384q1 -126 137 -126q139 0 139 130q0 149 -134 380z" />
<glyph unicode="&#x195;" d="M1221 569q4 -253 -100 -411q-98 -154 -258 -158l-89 -2q-136 -3 -204 118q-71 125 -72 344l-1 267q-4 86 -27 128q-27 52 -90 52q-64 0 -100 -71q-36 -70 -36 -195v-641h-232v1556h232v-604q25 93 85 144t145 51q127 0 192 -105q65 -106 65 -315l1 -267q2 -171 7 -181 q28 -52 57 -48l13 2q88 13 131 97q49 94 49 230v376h232v-367z" />
<glyph unicode="&#x196;" d="M470 462q0 -224 110 -344q109 -118 314 -118h234v260l-186 1q-102 1 -140 46q-38 46 -38 188v738h297v260h-889v-260h297z" />
<glyph unicode="&#x197;" d="M172 1233v260h889v-260h-297v-503h247v-192h-247v-278h297v-260h-889v260h297v278h-247v192h247v503h-297z" />
<glyph unicode="&#x198;" d="M764 1060l-124 -155l488 -905h-328l-354 672l-131 -166v-506h-295v1493h295v-590l256 327q173 221 307 249q130 26 271 -87l64 -51l-140 -176q-77 61 -145 45q-54 -13 -164 -150z" />
<glyph unicode="&#x199;" d="M174 1089q0 250 91 359q90 108 300 108h121v-225h-39q-98 0 -141 -55q-41 -53 -41 -187h2v-350l352 381h355l-424 -418l448 -702h-324l-307 524l-100 -96v-428h-293v964v125z" />
<glyph unicode="&#x19a;" d="M690 753h184v-192h-184h-10v-94q0 -132 41 -187t139 -55h234v-225h-316q-209 0 -300 108t-91 359v94h-168v192h168v578h-297v225h590v-803h10z" />
<glyph unicode="&#x19b;" d="M768 1518l103 -160l-230 -163l512 -1195h-297l-255 596l-224 -596h-297l363 965l-30 69l-210 -149l-100 162l234 166l-147 343h297l78 -182z" />
<glyph unicode="&#x19c;" d="M547 112q-33 -71 -84 -105t-125 -34q-145 0 -200.5 100t-55.5 416v1004h240v-1092q0 -125 19 -167t69 -42t70 43t20 166v1092h237v-1092q0 -123 20 -166t70 -43t69 42t19 167v1092h240v-1493h-213v116q-25 -66 -80 -104.5t-123 -38.5t-124 40.5t-68 98.5z" />
<glyph unicode="&#x19d;" d="M469 0q-9 -284 -157 -374q-84 -52 -234 -52h-48v225h60q59 0 102 75q18 29 18 167v1452h316l416 -1085v1085h260v-1493h-314l-418 1085v-1085h-1z" />
<glyph unicode="&#x19e;" d="M1071 727v-1153h-291v1108q0 122 -34.5 174.5t-112.5 52.5q-79 0 -124.5 -71t-45.5 -197v-641h-291v1120h291v-168q31 93 106 144t181 51q159 0 240 -105.5t81 -314.5z" />
<glyph unicode="&#x19f;" d="M616 -29q-369 0 -479 391q-45 160 -45 383q0 628 349 748q79 27 175 27q260 0 392.5 -196t132.5 -579q0 -640 -364 -752q-73 -22 -161 -22zM828 911q-18 197 -76 276q-51 68 -136 68q-148 0 -193 -214q-10 -50 -18 -130h423zM832 651h-431q9 -200 50 -295 q52 -120 165 -120q114 0 166 120q40 93 50 295z" />
<glyph unicode="&#x1a0;" d="M4 0zM828 1238v141q67 -50 103.5 -69t62.5 -19q39 0 63.5 29.5t24.5 78.5q0 39 -7.5 77.5t-23.5 78.5h156q11 -55 16.5 -102t5.5 -88q0 -115 -46 -176.5t-132 -61.5q-53 0 -107.5 27t-115.5 84zM528 1255q-113 0 -165 -120.5t-52 -389.5q0 -268 52 -388.5t165 -120.5 q114 0 166 120.5t52 388.5q0 269 -52 389.5t-166 120.5zM4 745q0 383 132.5 579t391.5 196q260 0 392.5 -196t132.5 -579q0 -382 -132.5 -578t-392.5 -196q-259 0 -391.5 196t-132.5 578z" />
<glyph unicode="&#x1a1;" d="M9 0zM823 850v141q67 -50 103.5 -69t62.5 -19q39 0 63.5 29.5t24.5 78.5q0 39 -7.5 77.5t-23.5 78.5h156q11 -55 16.5 -102t5.5 -88q0 -115 -46 -176.5t-132 -61.5q-53 0 -107.5 27t-115.5 84zM527 909q-105 0 -165 -92.5t-60 -257.5t60 -257.5t165 -92.5q106 0 166 92.5 t60 257.5t-60 257.5t-166 92.5zM9 559q0 271 140.5 429.5t377.5 158.5q238 0 378.5 -158.5t140.5 -429.5t-140.5 -429.5t-378.5 -158.5q-237 0 -377.5 158.5t-140.5 429.5z" />
<glyph unicode="&#x1a2;" d="M501 -29q-331 0 -431 391q-40 160 -40 383q0 639 325 752q67 23 146 23q209 0 326 -155l93 128h283v-1493h-234v1136l-114 -160v-809q-120 -196 -354 -196zM306 745q0 -351 85 -456q43 -53 110 -53q103 0 150 120v778q-47 121 -150 121q-141 0 -179 -244 q-16 -104 -16 -266z" />
<glyph unicode="&#x1a3;" d="M18 559q0 271 140.5 429.5t377.5 158.5q155 0 283 -124l131 101h283v-1550h-234v1230l-147 -114v-560q-140 -159 -316 -159q-237 0 -377.5 158.5t-140.5 429.5zM536 909q-105 0 -165 -92.5t-60 -257.5t60 -257.5t165 -92.5q44 0 104 93v514q-60 93 -104 93z" />
<glyph unicode="&#x1a4;" d="M625 1245v-438h19q145 0 203.5 49t58.5 170t-58.5 170t-203.5 49h-19zM330 1206q-29 0 -40 -38q-15 -52 -15 -80v-24h-255v77q0 150 48 220q75 109 211 128q25 4 51 4h303q309 0 444.5 -110t135.5 -357t-135.5 -357t-444.5 -110h-8v-559h-295v1206z" />
<glyph unicode="&#x1a5;" d="M850 561q0 162 -54 254t-149 92t-150 -92t-55 -254t55 -254t150 -92t149 92t54 254zM729 -29q-180 0 -287 187v-584h-292l1 1489h-1l1 26q10 262 91 359q90 108 300 108h121v-225h-39q-95 0 -141 -55q-35 -43 -41 -187h1l-1 -137q92 195 297 195q192 0 298 -154t106 -434 q0 -425 -231 -546q-81 -42 -183 -42z" />
<glyph unicode="&#x1a6;" d="M807 467q44 -9 77 -41q31 -32 79 -127l270 -537h-324l-180 377q-21 43 -21 44q-79 169 -186 169h-94v-352h-295v1493h295v-238h131q288 0 413.5 -102t125.5 -332q0 -154 -75 -245t-216 -109zM428 1007v-407h139q121 0 173.5 47.5t52.5 156.5t-52 156t-174 47h-139z" />
<glyph unicode="&#x1a7;" d="M729 655l-145 -55q-76 -29 -116 -79.5t-40 -117.5q0 -89 60 -138.5t169 -49.5q108 0 218.5 41t228.5 125v-305q-104 -52 -215.5 -78.5t-222.5 -26.5q-270 0 -403.5 111.5t-133.5 337.5q0 166 85 275t265 175l127 48q132 49 173.5 89.5t41.5 102.5q0 80 -57 123t-164 43 q-96 0 -194 -35t-193 -102v288q101 46 204 69.5t206 23.5q227 0 357 -116t130 -319q0 -158 -79 -251.5t-302 -178.5z" />
<glyph unicode="&#x1a8;" d="M248 1085q89 31 183.5 46.5t189.5 15.5q212 0 329 -90t117 -252q0 -136 -77 -217t-245 -119l-81 -18q-141 -34 -178.5 -64t-37.5 -86q0 -57 53 -87t156 -30q94 0 194.5 29t197.5 84v-256q-109 -35 -215 -52.5t-207 -17.5q-228 0 -341.5 86.5t-113.5 259.5 q0 144 74.5 228.5t234.5 122.5l84 20l11 3q214 50 214 130q0 56 -50 84.5t-148 28.5q-88 0 -175.5 -26.5t-168.5 -78.5v256z" />
<glyph unicode="&#x1a9;" d="M98 0zM499 747l-401 -487v-260h1046v260h-706l402 487l-402 486h706v260h-1046v-259z" />
<glyph unicode="&#x1aa;" d="M798 987v-1073q0 -64 26 -89q25 -24 89 -24h229v-225h-241q-228 0 -312 78t-84 280v1053h-135q-308 0 -311 276q-4 282 298 292v1h50q209 0 301 -108q75 -89 88 -250h137q116 0 172 -1v-210h-168h-139zM496 1197q-11 50 -32 79q-40 54 -136 55q-64 -5 -63 -58 q1 -76 106 -76h125zM328 1331h29h-29z" />
<glyph unicode="&#x1ab;" d="M690 1438v-318h383v-225h-383v-530q0 -75 36.5 -107.5t121.5 -32.5h225v-182v-43h-1q-7 -214 -92 -316q-90 -108 -300 -108h-121v225h39q98 0 141 55q34 44 40 145q-213 7 -293 79q-89 81 -89 299v516h-286v225h286v318h293z" />
<glyph unicode="&#x1ac;" d="M390 1237l79 -2v-1235h295v1235h379v258l-753 2q48 -5 -57 -5q-123 0 -213 -76q-33 -29 -51 -53q-48 -65 -48 -220v-77h255q0 33 1 47q6 72 33 105q16 19 60 20q1 1 20 1z" />
<glyph unicode="&#x1ad;" d="M399 1120q0 219 91 328q82 98 258 107q20 1 42 1h121v-225h-39q-98 0 -141 -55q-41 -53 -41 -156h383v-225h-383v-530q0 -75 36.5 -107.5t121.5 -32.5h225v-225h-246q-252 0 -341 80.5t-89 298.5v516h-286v225h288z" />
<glyph unicode="&#x1ae;" d="M469 0v1235h-379v258h1053v-258h-379v-1194q0 -134 42 -188t140 -54h39v-225h-126q-210 0 -296.5 104t-93.5 322z" />
<glyph unicode="&#x1af;" d="M5 0zM827 1238v141q67 -50 103.5 -69t62.5 -19q39 0 63.5 29.5t24.5 78.5q0 39 -7.5 77.5t-23.5 78.5h156q11 -55 16.5 -102t5.5 -88q0 -115 -46 -176.5t-132 -61.5q-53 0 -107.5 27t-115.5 84zM5 551v942h295v-1016q0 -112 57 -175.5t158 -63.5t158 63.5t57 175.5v1016 h295v-942q0 -304 -121 -442t-389 -138q-267 0 -388.5 138t-121.5 442z" />
<glyph unicode="&#x1b0;" d="M8 0zM824 850v141q67 -50 103.5 -69t62.5 -19q39 0 63.5 29.5t24.5 78.5q0 39 -7.5 77.5t-23.5 78.5h156q11 -55 16.5 -102t5.5 -88q0 -115 -46 -176.5t-132 -61.5q-53 0 -107.5 27t-115.5 84zM8 391v729h293v-684q0 -121 34 -173t113 -52t123.5 70t44.5 196v643h293 v-1120h-293v166q-31 -93 -105.5 -144t-179.5 -51q-160 0 -241.5 106t-81.5 314z" />
<glyph unicode="&#x1b1;" d="M1143 1249h-238q120 -109 174 -244.5t54 -326.5q0 -312 -139.5 -495t-374.5 -183q-237 0 -378 183t-141 495q0 191 54 326.5t174 244.5h-238v211h471v-268q-81 -79 -120 -196t-39 -284q0 -214 56 -330t159 -116q102 0 158.5 116t56.5 330q0 166 -40 284.5t-122 195.5v268 h473v-211z" />
<glyph unicode="&#x1b2;" d="M805 707q0 328 -162 480v57h235q120 -109 174 -244.5t54 -326.5q0 -312 -140 -495q-135 -178 -424 -178q-253 0 -358 176q-66 110 -66 286l-1 771v260h295v-998q0 -142 38 -188q38 -45 140 -46q154 0 199 248q16 88 16 198z" />
<glyph unicode="&#x1b3;" d="M933 1026l-206 -438v-588h-295v588l-429 905h302l276 -600l97 211q147 320 188 348q134 92 303 15l61 -28l-63 -215q-31 19 -84 17q-49 -2 -150 -215z" />
<glyph unicode="&#x1b4;" d="M928 664l-278 -785q-107 -303 -342 -303h-242v223h119q90 0 132 30.5t85 141.5l22 60l-395 1089h293l243 -727l112 351q91 281 173 340q83 59 302 21l52 -9l-59 -216q-94 35 -142 -44q-34 -57 -75 -172z" />
<glyph unicode="&#x1b5;" d="M137 1493h1010v-244l-363 -519h227v-192h-361l-195 -278h706v-260h-1046v244l199 294h-92v192h223l341 503h-649v260z" />
<glyph unicode="&#x1b6;" d="M181 1120h895v-229l-227 -259h155v-194h-325l-192 -219h589v-219h-919v229l183 209h-110v194h281l236 269h-566v219z" />
<glyph unicode="&#x1b7;" d="M1223 425q0 -281 -241 -390q-141 -63 -359 -63q-338 0 -469 116q-144 128 -144 351h318q0 -107 97 -164q69 -41 167 -41q235 0 276 146q8 28 8 59q0 179 -224 203q-34 4 -73 4h-255v218l372 369h-566v260h1010v-244l-401 -401q145 -9 223 -32q107 -31 180 -131 q81 -110 81 -260z" />
<glyph unicode="&#x1b8;" d="M641 234q141 0 215 78q49 53 49 127h318q0 -223 -144 -351q-131 -116 -469 -116q-458 0 -568 274q-32 80 -32 179q0 143 71 245q79 113 190 146q78 23 223 32l-401 401v244h1010v-260h-566l372 -369v-218h-255q-297 0 -297 -207q0 -139 138 -185q60 -20 146 -20z" />
<glyph unicode="&#x1b9;" d="M922 452v-218h-168q-147 0 -222 -52q-75 -53 -75 -155q0 -99 73 -152t211 -53q93 0 189 28q96 27 193 81v-297q-102 -37 -206 -56q-104 -18 -207 -18q-294 0 -447 116q-153 115 -153 337q0 143 71 245q77 113 190 146q78 23 223 32l-391 455v229h895v-219h-566z" />
<glyph unicode="&#x1ba;" d="M792 546q111 -17 189 -65q116 -72 116 -220q0 -138 -92 -205q-89 -65 -318 -92l-60 -7q-106 -12 -138 -30q-35 -19 -35 -59q0 -48 51 -72q50 -24 150 -24q110 0 217 22q107 21 208 64v-226q-127 -31 -230 -44q-113 -14 -219 -14q-246 0 -374 75q-126 74 -126 224 q0 141 91 208q78 58 351 94l60 8q101 13 127 27q36 18 36 56q0 45 -47 65q-50 21 -298 21h-212l486 549h-594v219h966v-219z" />
<glyph unicode="&#x1bb;" d="M434 260h629v-260h-948v252l160 170l109 116h-162v192h340l59 65q75 86 108 152.5t33 131.5q0 100 -60.5 154.5t-171.5 54.5q-79 0 -177.5 -31.5t-205.5 -91.5v275q107 39 209.5 59.5t196.5 20.5q237 0 372.5 -110.5t135.5 -301.5q0 -88 -29.5 -165t-101.5 -171 q-13 -16 -36 -42h117v-192h-247h-53l-72 -72z" />
<glyph unicode="&#x1bc;" d="M324 646h-142v847h930v-260h-635v-353h262q116 0 257 -64q75 -30 156 -146q71 -102 71 -245q0 -222 -153 -337q-154 -116 -447 -116q-338 0 -469 116q-144 128 -144 351h318q0 -95 79 -152q74 -53 185 -53q138 0 211 53t73 152q0 102 -75 155q-75 52 -222 52h-102h-153z " />
<glyph unicode="&#x1bd;" d="M620 452q136 0 256 -48q105 -44 176 -146q71 -103 71 -245q0 -222 -153 -337q-154 -116 -447 -116q-103 0 -207 18q-104 19 -206 56v297q95 -53 193 -81t189 -28q138 0 211 53t73 152q0 102 -75 155q-75 52 -222 52h-168h-89v886h799v-209h-508v-459h107z" />
<glyph unicode="&#x1be;" d="M686 1078v-49q170 -31 261 -125q140 -145 140 -376q0 -215 -119 -348q-188 -210 -405 -210q-163 0 -236 18q-73 17 -141 52v298q70 -43 140 -64q72 -22 144 -22q161 0 250 114q52 66 52 162q0 71 -51 147q-78 114 -273 114h-84v289h-218v194h214h4v166h322v-166h233v-194 h-233z" />
<glyph unicode="&#x1bf;" d="M396 -132v-294h-315v1546h315v-165q76 111 152 148q92 44 262 44q180 0 248 -112q80 -127 80 -266q0 -420 -742 -901zM396 145q417 334 417 498q0 113 -50 179q-50 65 -160 65q-78 0 -207 -203v-539z" />
<glyph unicode="&#x1c0;" d="M483 1493h267v-1493h-267v1493z" />
<glyph unicode="&#x1c1;" d="M254 0zM712 1493h267v-1493h-267v1493zM254 1493h267v-1493h-267v1493z" />
<glyph unicode="&#x1c2;" d="M483 1493h267v-347h410v-235h-410v-220h410v-237h-410v-454h-267v454h-410v237h410v220h-410v235h410v347z" />
<glyph unicode="&#x1c3;" d="M483 0zM483 283h267v-283h-267v283zM483 1493h267v-655l-33 -357h-199l-35 357v655z" />
<glyph unicode="&#x1cd;" d="M33 0zM616 1223l-139 -611h279zM436 1493h361l403 -1493h-295l-92 369h-395l-90 -369h-295zM461 1635l-221 264h178l198 -162l199 162h178l-223 -264h-309z" />
<glyph unicode="&#x1ce;" d="M94 0zM700 526q-164 0 -229 -42t-65 -144q0 -76 45 -121t122 -45q116 0 180 87.5t64 244.5v20h-117zM1108 639v-639h-291v125q-53 -74 -136 -114t-183 -40q-191 0 -297.5 101t-106.5 282q0 196 127 289.5t393 93.5h203v49q0 71 -51.5 107.5t-151.5 36.5 q-105 0 -203.5 -26.5t-205.5 -84.5v250q97 40 197 59t212 19q273 0 383.5 -111t110.5 -397zM496 1262l-256 376h178l198 -227l199 227h178l-256 -376h-241z" />
<glyph unicode="&#x1cf;" d="M172 0zM172 1233v260h889v-260h-297v-973h297v-260h-889v260h297v973h-297zM461 1635l-221 264h178l198 -162l199 162h178l-223 -264h-309z" />
<glyph unicode="&#x1d0;" d="M143 0zM221 1120h580v-895h364v-225h-1022v225h365v670h-287v225zM496 1262l-256 376h178l198 -227l199 227h178l-256 -376h-241z" />
<glyph unicode="&#x1d1;" d="M92 0zM616 1255q-113 0 -165 -120.5t-52 -389.5q0 -268 52 -388.5t165 -120.5q114 0 166 120.5t52 388.5q0 269 -52 389.5t-166 120.5zM92 745q0 383 132.5 579t391.5 196q260 0 392.5 -196t132.5 -579q0 -382 -132.5 -578t-392.5 -196q-259 0 -391.5 196t-132.5 578z M461 1635l-221 264h178l198 -162l199 162h178l-223 -264h-309z" />
<glyph unicode="&#x1d2;" d="M98 0zM616 909q-105 0 -165 -92.5t-60 -257.5t60 -257.5t165 -92.5q106 0 166 92.5t60 257.5t-60 257.5t-166 92.5zM98 559q0 271 140.5 429.5t377.5 158.5q238 0 378.5 -158.5t140.5 -429.5t-140.5 -429.5t-378.5 -158.5q-237 0 -377.5 158.5t-140.5 429.5zM496 1262 l-256 376h178l198 -227l199 227h178l-256 -376h-241z" />
<glyph unicode="&#x1d3;" d="M106 0zM106 551v942h295v-1016q0 -112 57 -175.5t158 -63.5t158 63.5t57 175.5v1016h295v-942q0 -304 -121 -442t-389 -138q-267 0 -388.5 138t-121.5 442zM461 1635l-221 264h178l198 -162l199 162h178l-223 -264h-309z" />
<glyph unicode="&#x1d4;" d="M160 0zM160 391v729h293v-684q0 -121 34 -173t113 -52t123.5 70t44.5 196v643h293v-1120h-293v166q-31 -93 -105.5 -144t-179.5 -51q-160 0 -241.5 106t-81.5 314zM496 1262l-256 376h178l198 -227l199 227h178l-256 -376h-241z" />
<glyph unicode="&#x1d5;" d="M106 0zM696 1771h236v-246h-236v246zM301 1771h236v-246h-236v246zM106 551v942h295v-1016q0 -112 57 -175.5t158 -63.5t158 63.5t57 175.5v1016h295v-942q0 -304 -121 -442t-389 -138q-267 0 -388.5 138t-121.5 442zM301 1829zM301 2017h631v-188h-631v188z" />
<glyph unicode="&#x1d6;" d="M160 0zM301 1871h631v-188h-631v188zM160 0zM160 391v729h293v-684q0 -121 34 -173t113 -52t123.5 70t44.5 196v643h293v-1120h-293v166q-31 -93 -105.5 -144t-179.5 -51q-160 0 -241.5 106t-81.5 314zM696 1585h236v-246h-236v246zM301 1585h236v-246h-236v246z" />
<glyph unicode="&#x1d7;" d="M106 0zM106 551v942h295v-1016q0 -112 57 -175.5t158 -63.5t158 63.5t57 175.5v1016h295v-942q0 -304 -121 -442t-389 -138q-267 0 -388.5 138t-121.5 442zM696 1771h236v-246h-236v246zM301 1771h236v-246h-236v246zM668 2064h284l-286 -264h-197z" />
<glyph unicode="&#x1d8;" d="M160 0zM469 1677zM752 2053h282l-368 -376h-197zM160 0zM160 391v729h293v-684q0 -121 34 -173t113 -52t123.5 70t44.5 196v643h293v-1120h-293v166q-31 -93 -105.5 -144t-179.5 -51q-160 0 -241.5 106t-81.5 314zM696 1585h236v-246h-236v246zM301 1585h236v-246h-236 v246z" />
<glyph unicode="&#x1d9;" d="M106 0zM106 551v942h295v-1016q0 -112 57 -175.5t158 -63.5t158 63.5t57 175.5v1016h295v-942q0 -304 -121 -442t-389 -138q-267 0 -388.5 138t-121.5 442zM696 1771h236v-246h-236v246zM301 1771h236v-246h-236v246zM461 1800l-221 264h178l198 -162l199 162h178 l-223 -264h-309z" />
<glyph unicode="&#x1da;" d="M160 0zM240 1677zM496 1677l-256 376h178l198 -227l199 227h178l-256 -376h-241zM160 0zM160 391v729h293v-684q0 -121 34 -173t113 -52t123.5 70t44.5 196v643h293v-1120h-293v166q-31 -93 -105.5 -144t-179.5 -51q-160 0 -241.5 106t-81.5 314zM696 1585h236v-246h-236 v246zM301 1585h236v-246h-236v246z" />
<glyph unicode="&#x1db;" d="M106 0zM106 551v942h295v-1016q0 -112 57 -175.5t158 -63.5t158 63.5t57 175.5v1016h295v-942q0 -304 -121 -442t-389 -138q-267 0 -388.5 138t-121.5 442zM696 1771h236v-246h-236v246zM301 1771h236v-246h-236v246zM567 2064l199 -264h-197l-286 264h284z" />
<glyph unicode="&#x1dc;" d="M160 0zM199 1677zM481 2053l283 -376h-197l-368 376h282zM160 0zM160 391v729h293v-684q0 -121 34 -173t113 -52t123.5 70t44.5 196v643h293v-1120h-293v166q-31 -93 -105.5 -144t-179.5 -51q-160 0 -241.5 106t-81.5 314zM696 1585h236v-246h-236v246zM301 1585h236 v-246h-236v246z" />
<glyph unicode="&#x1dd;" d="M92 0zM92 534v119h759v10q-1 132 -78 192t-230 60q-101 0 -199 -29t-205 -92v269q102 42 208 63t224 21q281 0 429.5 -150.5t148.5 -433.5q0 -274 -143 -433t-390 -159q-249 0 -386.5 147.5t-137.5 415.5zM387 433q2 -116 59.5 -175.5t169.5 -59.5q101 0 161 61t71 174 h-461z" />
<glyph unicode="&#x1de;" d="M33 0zM696 1803h236v-246h-236v246zM301 1803h236v-246h-236v246zM301 1829zM301 2017h631v-188h-631v188zM616 1223l-139 -611h279zM436 1493h361l403 -1493h-295l-92 369h-395l-90 -369h-295z" />
<glyph unicode="&#x1df;" d="M94 0zM301 1871h631v-188h-631v188zM94 0zM700 526q-164 0 -229 -42t-65 -144q0 -76 45 -121t122 -45q116 0 180 87.5t64 244.5v20h-117zM1108 639v-639h-291v125q-53 -74 -136 -114t-183 -40q-191 0 -297.5 101t-106.5 282q0 196 127 289.5t393 93.5h203v49 q0 71 -51.5 107.5t-151.5 36.5q-105 0 -203.5 -26.5t-205.5 -84.5v250q97 40 197 59t212 19q273 0 383.5 -111t110.5 -397zM696 1585h236v-246h-236v246zM301 1585h236v-246h-236v246z" />
<glyph unicode="&#x1e0;" d="M33 0zM479 1803h275v-246h-275v246zM616 1223l-139 -611h279zM436 1493h361l403 -1493h-295l-92 369h-395l-90 -369h-295zM301 1829zM301 2017h631v-188h-631v188z" />
<glyph unicode="&#x1e1;" d="M94 0zM700 526q-164 0 -229 -42t-65 -144q0 -76 45 -121t122 -45q116 0 180 87.5t64 244.5v20h-117zM1108 639v-639h-291v125q-53 -74 -136 -114t-183 -40q-191 0 -297.5 101t-106.5 282q0 196 127 289.5t393 93.5h203v49q0 71 -51.5 107.5t-151.5 36.5 q-105 0 -203.5 -26.5t-205.5 -84.5v250q97 40 197 59t212 19q273 0 383.5 -111t110.5 -397zM479 1585h275v-246h-275v246zM301 1871h631v-188h-631v188z" />
<glyph unicode="&#x1e2;" d="M0 0zM444 1870h631v-188h-631v188zM1161 1493v-260h-291v-311h260v-260h-260v-402h310v-260h-564v362h-282l-86 -362h-248l358 1493h803zM537 1233l-148 -635h227v635h-79z" />
<glyph unicode="&#x1e3;" d="M14 0zM301 1556h631v-188h-631v188zM489 401v82h-73q-87 0 -131.5 -39t-44.5 -114q0 -71 32 -108.5t93 -37.5q63 0 93.5 43t30.5 131v43zM963 690v23q0 125 -25 172t-88 47t-88 -47t-25 -172v-23h226zM1188 479h-451q0 -144 50 -219.5t145 -75.5q60 0 120 29.5t119 87.5 v-244q-50 -44 -112.5 -65t-145.5 -21q-103 0 -178 42t-117 122q-41 -84 -106.5 -124t-163.5 -40q-160 0 -247 92.5t-87 262.5q0 185 101 276.5t305 91.5h76v51q0 93 -39 140t-115 47q-57 0 -124.5 -27.5t-141.5 -81.5v246q74 39 144 58.5t134 19.5q98 0 160.5 -31t97.5 -96 q29 61 94.5 94t157.5 33q177 0 250.5 -119t73.5 -422v-127z" />
<glyph unicode="&#x1e6;" d="M117 0zM582 1635l-221 264h178l198 -162l199 162h178l-223 -264h-309zM872 270v285h-202v248h460v-684q-85 -73 -187.5 -110.5t-219.5 -37.5q-290 0 -448 201.5t-158 572.5q0 377 159.5 576t460.5 199q90 0 177 -25.5t163 -73.5v-327q-62 80 -142.5 120.5t-176.5 40.5 q-168 0 -251 -126.5t-83 -383.5q0 -249 80 -379t233 -130q46 0 80 8.5t55 25.5z" />
<glyph unicode="&#x1e7;" d="M98 0zM476 1262l-256 376h178l198 -227l199 227h178l-256 -376h-241zM803 578q0 150 -57 240.5t-150 90.5q-92 0 -148.5 -90t-56.5 -241q0 -152 56.5 -242t148.5 -90q93 0 150 90.5t57 241.5zM1096 84q0 -269 -121.5 -388.5t-394.5 -119.5q-92 0 -182 13.5t-183 41.5v269 q83 -46 169 -68t177 -22q124 0 183 58.5t59 182.5v121q-43 -80 -114 -119t-173 -39q-192 0 -305 150t-113 407q0 266 113 422t303 156q96 0 171 -45t118 -127v143h293v-1036z" />
<glyph unicode="&#x1e8;" d="M117 0zM461 1635l-221 264h178l198 -162l199 162h178l-223 -264h-309zM117 1493h295v-590l462 590h334l-471 -588l488 -905h-328l-354 672l-131 -166v-506h-295v1493z" />
<glyph unicode="&#x1e9;" d="M174 0zM461 1635l-221 264h178l198 -162l199 162h178l-223 -264h-309zM174 1556h293v-817l352 381h355l-424 -418l448 -702h-324l-307 524l-100 -96v-428h-293v1556z" />
<glyph unicode="&#x1ea;" d="M92 0zM545 -16h141q-53 -71 -71.5 -106t-18.5 -60q0 -39 30.5 -63.5t80.5 -24.5q38 0 76.5 7.5t78.5 23.5v-156q-54 -11 -101.5 -16.5t-88.5 -5.5q-114 0 -176 46t-62 132q0 53 27.5 107.5t83.5 115.5zM616 1255q-113 0 -165 -120.5t-52 -389.5q0 -268 52 -388.5 t165 -120.5q114 0 166 120.5t52 388.5q0 269 -52 389.5t-166 120.5zM92 745q0 383 132.5 579t391.5 196q260 0 392.5 -196t132.5 -579q0 -382 -132.5 -578t-392.5 -196q-259 0 -391.5 196t-132.5 578z" />
<glyph unicode="&#x1eb;" d="M98 0zM545 -16h141q-53 -71 -71.5 -106t-18.5 -60q0 -39 30.5 -63.5t80.5 -24.5q38 0 76.5 7.5t78.5 23.5v-156q-54 -11 -101.5 -16.5t-88.5 -5.5q-114 0 -176 46t-62 132q0 53 27.5 107.5t83.5 115.5zM616 909q-105 0 -165 -92.5t-60 -257.5t60 -257.5t165 -92.5 q106 0 166 92.5t60 257.5t-60 257.5t-166 92.5zM98 559q0 271 140.5 429.5t377.5 158.5q238 0 378.5 -158.5t140.5 -429.5t-140.5 -429.5t-378.5 -158.5q-237 0 -377.5 158.5t-140.5 429.5z" />
<glyph unicode="&#x1ec;" d="M92 0zM301 1870h631v-188h-631v188zM92 0zM545 -16h141q-53 -71 -71.5 -106t-18.5 -60q0 -39 30.5 -63.5t80.5 -24.5q38 0 76.5 7.5t78.5 23.5v-156q-54 -11 -101.5 -16.5t-88.5 -5.5q-114 0 -176 46t-62 132q0 53 27.5 107.5t83.5 115.5zM616 1255q-113 0 -165 -120.5 t-52 -389.5q0 -268 52 -388.5t165 -120.5q114 0 166 120.5t52 388.5q0 269 -52 389.5t-166 120.5zM92 745q0 383 132.5 579t391.5 196q260 0 392.5 -196t132.5 -579q0 -382 -132.5 -578t-392.5 -196q-259 0 -391.5 196t-132.5 578z" />
<glyph unicode="&#x1ed;" d="M98 0zM301 1556h631v-188h-631v188zM98 0zM545 -16h141q-53 -71 -71.5 -106t-18.5 -60q0 -39 30.5 -63.5t80.5 -24.5q38 0 76.5 7.5t78.5 23.5v-156q-54 -11 -101.5 -16.5t-88.5 -5.5q-114 0 -176 46t-62 132q0 53 27.5 107.5t83.5 115.5zM616 909q-105 0 -165 -92.5 t-60 -257.5t60 -257.5t165 -92.5q106 0 166 92.5t60 257.5t-60 257.5t-166 92.5zM98 559q0 271 140.5 429.5t377.5 158.5q238 0 378.5 -158.5t140.5 -429.5t-140.5 -429.5t-378.5 -158.5q-237 0 -377.5 158.5t-140.5 429.5z" />
<glyph unicode="&#x1ee;" d="M10 0zM461 1635l-221 264h178l198 -162l199 162h178l-223 -264h-309zM1223 425q0 -281 -241 -390q-141 -63 -359 -63q-338 0 -469 116q-144 128 -144 351h318q0 -107 97 -164q69 -41 167 -41q235 0 276 146q8 28 8 59q0 179 -224 203q-34 4 -73 4h-255v218l372 369h-566 v260h1010v-244l-401 -401q145 -9 223 -32q107 -31 180 -131q81 -110 81 -260z" />
<glyph unicode="&#x1ef;" d="M110 0zM496 1262l-256 376h178l198 -227l199 227h178l-256 -376h-241zM311 452l390 449h-566v219h895v-229l-391 -455q145 -9 223 -32q113 -33 190 -146q71 -102 71 -245q0 -222 -153 -337q-153 -116 -447 -116q-103 0 -207 18q-104 19 -206 56v297q97 -54 193 -81 q96 -28 189 -28q138 0 211 53t73 152q0 102 -75 155q-75 52 -222 52h-168v218z" />
<glyph unicode="&#x1f0;" d="M143 0zM513 1267l-256 376h178l198 -227l199 227h178l-256 -376h-241zM850 43q0 -252 -90.5 -359.5t-300.5 -107.5h-316v225h234q98 0 139 55t41 187v852h-297v225h590v-1077z" />
<glyph unicode="&#x1f4;" d="M117 0zM789 1899h284l-286 -264h-197zM872 270v285h-202v248h460v-684q-85 -73 -187.5 -110.5t-219.5 -37.5q-290 0 -448 201.5t-158 572.5q0 377 159.5 576t460.5 199q90 0 177 -25.5t163 -73.5v-327q-62 80 -142.5 120.5t-176.5 40.5q-168 0 -251 -126.5t-83 -383.5 q0 -249 80 -379t233 -130q46 0 80 8.5t55 25.5z" />
<glyph unicode="&#x1f5;" d="M98 0zM732 1638h282l-368 -376h-197zM803 578q0 150 -57 240.5t-150 90.5q-92 0 -148.5 -90t-56.5 -241q0 -152 56.5 -242t148.5 -90q93 0 150 90.5t57 241.5zM1096 84q0 -269 -121.5 -388.5t-394.5 -119.5q-92 0 -182 13.5t-183 41.5v269q83 -46 169 -68t177 -22 q124 0 183 58.5t59 182.5v121q-43 -80 -114 -119t-173 -39q-192 0 -305 150t-113 407q0 266 113 422t303 156q96 0 171 -45t118 -127v143h293v-1036z" />
<glyph unicode="&#x1f6;" d="M25 1493h251v-569h222v569h251v-942v-74q0 -152 17 -189q23 -50 79 -50q69 0 91 58q21 56 21 181v447h251v-373q0 -304 -103 -442t-260 -138q-141 0 -244 138t-103 442v113h-222v-664h-251v1493z" />
<glyph unicode="&#x1f8;" d="M119 0zM567 1899l199 -264h-197l-286 264h284zM119 1493h317l416 -1085v1085h260v-1493h-315l-418 1085v-1085h-260v1493z" />
<glyph unicode="&#x1f9;" d="M172 0zM195 1264zM477 1640l283 -376h-197l-368 376h282zM1071 727v-727h-291v682q0 122 -34.5 174.5t-112.5 52.5q-79 0 -124.5 -71t-45.5 -197v-641h-291v1120h291v-168q31 93 106 144t181 51q159 0 240 -105.5t81 -314.5z" />
<glyph unicode="&#x1fc;" d="M0 0zM888 1899h284l-286 -264h-197zM1161 1493v-260h-291v-311h260v-260h-260v-402h310v-260h-564v362h-282l-86 -362h-248l358 1493h803zM537 1233l-148 -635h227v635h-79z" />
<glyph unicode="&#x1fd;" d="M14 0zM752 1638h282l-368 -376h-197zM489 401v82h-73q-87 0 -131.5 -39t-44.5 -114q0 -71 32 -108.5t93 -37.5q63 0 93.5 43t30.5 131v43zM963 690v23q0 125 -25 172t-88 47t-88 -47t-25 -172v-23h226zM1188 479h-451q0 -144 50 -219.5t145 -75.5q60 0 120 29.5t119 87.5 v-244q-50 -44 -112.5 -65t-145.5 -21q-103 0 -178 42t-117 122q-41 -84 -106.5 -124t-163.5 -40q-160 0 -247 92.5t-87 262.5q0 185 101 276.5t305 91.5h76v51q0 93 -39 140t-115 47q-57 0 -124.5 -27.5t-141.5 -81.5v246q74 39 144 58.5t134 19.5q98 0 160.5 -31t97.5 -96 q29 61 94.5 94t157.5 33q177 0 250.5 -119t73.5 -422v-127z" />
<glyph unicode="&#x1fe;" d="M0 0zM451 354q24 -57 66.5 -87.5t98.5 -30.5q114 0 166 120.5t52 388.5q0 28 -1 59t-4 84zM772 1153q-26 51 -65 76.5t-91 25.5q-112 0 -164.5 -120t-52.5 -379v-127zM162 289q-35 88 -52.5 201.5t-17.5 254.5q0 383 132.5 579t391.5 196q103 0 186 -31t144 -92l113 162 l162 -115l-158 -223q39 -94 58.5 -213.5t19.5 -262.5q0 -382 -132.5 -578t-392.5 -196q-106 0 -191 33.5t-149 99.5l-120 -167l-162 114zM668 1899h284l-286 -264h-197z" />
<glyph unicode="&#x1ff;" d="M25 0zM831 675l-348 -413q31 -27 64 -40t71 -13q104 0 164 93.5t60 256.5q0 29 -2.5 58t-8.5 58zM399 449l346 411q-26 25 -57 37t-70 12q-106 0 -166.5 -92.5t-60.5 -257.5q0 -34 2 -60t6 -50zM188 199q-45 73 -67.5 162t-22.5 198q0 271 140.5 429.5t377.5 158.5 q85 0 158.5 -21.5t140.5 -66.5l148 176l139 -121l-160 -188q46 -76 69.5 -168t23.5 -199q0 -271 -140.5 -429.5t-378.5 -158.5q-83 0 -158.5 22.5t-142.5 67.5l-151 -178l-139 119zM471 1263zM754 1639h282l-368 -376h-197z" />
<glyph unicode="&#x200;" d="M33 0zM616 1223l-139 -611h279zM436 1493h361l403 -1493h-295l-92 369h-395l-90 -369h-295zM395 1899l199 -264h-197l-286 264h284zM770 1899l199 -264h-197l-286 264h284z" />
<glyph unicode="&#x201;" d="M94 0zM700 526q-164 0 -229 -42t-65 -144q0 -76 45 -121t122 -45q116 0 180 87.5t64 244.5v20h-117zM1108 639v-639h-291v125q-53 -74 -136 -114t-183 -40q-191 0 -297.5 101t-106.5 282q0 196 127 289.5t393 93.5h203v49q0 71 -51.5 107.5t-151.5 36.5 q-105 0 -203.5 -26.5t-205.5 -84.5v250q97 40 197 59t212 19q273 0 383.5 -111t110.5 -397zM736 1638l194 -376h-163l-248 376h217zM373 1638l215 -376h-174l-272 376h231z" />
<glyph unicode="&#x202;" d="M33 0zM616 1223l-139 -611h279zM436 1493h361l403 -1493h-295l-92 369h-395l-90 -369h-295zM281 1635h141q20 60 69 90.5t125 30.5q77 0 125 -30t68 -91h143q-15 129 -101.5 196.5t-234.5 67.5q-147 0 -233.5 -67.5t-101.5 -196.5z" />
<glyph unicode="&#x203;" d="M94 0zM700 526q-164 0 -229 -42t-65 -144q0 -76 45 -121t122 -45q116 0 180 87.5t64 244.5v20h-117zM1108 639v-639h-291v125q-53 -74 -136 -114t-183 -40q-191 0 -297.5 101t-106.5 282q0 196 127 289.5t393 93.5h203v49q0 71 -51.5 107.5t-151.5 36.5 q-105 0 -203.5 -26.5t-205.5 -84.5v250q97 40 197 59t212 19q273 0 383.5 -111t110.5 -397zM281 1309q6 144 92.5 220.5t242.5 76.5q157 0 243.5 -76.5t92.5 -220.5h-143q-11 70 -60.5 107t-132.5 37t-133 -37.5t-61 -106.5h-141z" />
<glyph unicode="&#x204;" d="M111 0zM1098 0h-930v1493h930v-260h-635v-322h575v-260h-575v-391h635v-260zM395 1899l199 -264h-197l-286 264h284zM770 1899l199 -264h-197l-286 264h284z" />
<glyph unicode="&#x205;" d="M92 0zM1102 55q-102 -42 -208 -63t-224 -21q-281 0 -429.5 150.5t-148.5 433.5q0 274 143 433t390 159q249 0 386.5 -147.5t137.5 -415.5v-119h-759q1 -132 78 -197t230 -65q101 0 199 29t205 92v-269zM854 685q-2 116 -59.5 175.5t-169.5 59.5q-101 0 -161 -61.5 t-71 -174.5zM775 1638l194 -376h-163l-248 376h217zM412 1638l215 -376h-174l-272 376h231z" />
<glyph unicode="&#x206;" d="M168 0zM1098 0h-930v1493h930v-260h-635v-322h575v-260h-575v-391h635v-260zM281 1635h141q20 60 69 90.5t125 30.5q77 0 125 -30t68 -91h143q-15 129 -101.5 196.5t-234.5 67.5q-147 0 -233.5 -67.5t-101.5 -196.5z" />
<glyph unicode="&#x207;" d="M92 0zM1102 55q-102 -42 -208 -63t-224 -21q-281 0 -429.5 150.5t-148.5 433.5q0 274 143 433t390 159q249 0 386.5 -147.5t137.5 -415.5v-119h-759q1 -132 78 -197t230 -65q101 0 199 29t205 92v-269zM854 685q-2 116 -59.5 175.5t-169.5 59.5q-101 0 -161 -61.5 t-71 -174.5zM320 1309q6 144 92.5 220.5t242.5 76.5q157 0 243.5 -76.5t92.5 -220.5h-143q-11 70 -60.5 107t-132.5 37t-133 -37.5t-61 -106.5h-141z" />
<glyph unicode="&#x208;" d="M111 0zM172 1233v260h889v-260h-297v-973h297v-260h-889v260h297v973h-297zM395 1899l199 -264h-197l-286 264h284zM770 1899l199 -264h-197l-286 264h284z" />
<glyph unicode="&#x209;" d="M142 0zM221 1120h580v-895h364v-225h-1022v225h365v670h-287v225zM736 1638l194 -376h-163l-248 376h217zM373 1638l215 -376h-174l-272 376h231z" />
<glyph unicode="&#x20a;" d="M172 0zM172 1233v260h889v-260h-297v-973h297v-260h-889v260h297v973h-297zM281 1635h141q20 60 69 90.5t125 30.5q77 0 125 -30t68 -91h143q-15 129 -101.5 196.5t-234.5 67.5q-147 0 -233.5 -67.5t-101.5 -196.5z" />
<glyph unicode="&#x20b;" d="M143 0zM221 1120h580v-895h364v-225h-1022v225h365v670h-287v225zM281 1309q6 144 92.5 220.5t242.5 76.5q157 0 243.5 -76.5t92.5 -220.5h-143q-11 70 -60.5 107t-132.5 37t-133 -37.5t-61 -106.5h-141z" />
<glyph unicode="&#x20c;" d="M92 0zM616 1255q-113 0 -165 -120.5t-52 -389.5q0 -268 52 -388.5t165 -120.5q114 0 166 120.5t52 388.5q0 269 -52 389.5t-166 120.5zM92 745q0 383 132.5 579t391.5 196q260 0 392.5 -196t132.5 -579q0 -382 -132.5 -578t-392.5 -196q-259 0 -391.5 196t-132.5 578z M395 1899l199 -264h-197l-286 264h284zM770 1899l199 -264h-197l-286 264h284z" />
<glyph unicode="&#x20d;" d="M98 0zM616 909q-105 0 -165 -92.5t-60 -257.5t60 -257.5t165 -92.5q106 0 166 92.5t60 257.5t-60 257.5t-166 92.5zM98 559q0 271 140.5 429.5t377.5 158.5q238 0 378.5 -158.5t140.5 -429.5t-140.5 -429.5t-378.5 -158.5q-237 0 -377.5 158.5t-140.5 429.5zM736 1638 l194 -376h-163l-248 376h217zM373 1638l215 -376h-174l-272 376h231z" />
<glyph unicode="&#x20e;" d="M92 0zM616 1255q-113 0 -165 -120.5t-52 -389.5q0 -268 52 -388.5t165 -120.5q114 0 166 120.5t52 388.5q0 269 -52 389.5t-166 120.5zM92 745q0 383 132.5 579t391.5 196q260 0 392.5 -196t132.5 -579q0 -382 -132.5 -578t-392.5 -196q-259 0 -391.5 196t-132.5 578z M281 1635h141q20 60 69 90.5t125 30.5q77 0 125 -30t68 -91h143q-15 129 -101.5 196.5t-234.5 67.5q-147 0 -233.5 -67.5t-101.5 -196.5z" />
<glyph unicode="&#x20f;" d="M98 0zM616 909q-105 0 -165 -92.5t-60 -257.5t60 -257.5t165 -92.5q106 0 166 92.5t60 257.5t-60 257.5t-166 92.5zM98 559q0 271 140.5 429.5t377.5 158.5q238 0 378.5 -158.5t140.5 -429.5t-140.5 -429.5t-378.5 -158.5q-237 0 -377.5 158.5t-140.5 429.5zM281 1309 q6 144 92.5 220.5t242.5 76.5q157 0 243.5 -76.5t92.5 -220.5h-143q-11 70 -60.5 107t-132.5 37t-133 -37.5t-61 -106.5h-141z" />
<glyph unicode="&#x210;" d="M61 0zM807 705q44 -9 76.5 -41.5t79.5 -126.5l270 -537h-324l-180 377q-8 16 -21 44q-79 169 -186 169h-94v-590h-295v1493h426q288 0 413.5 -102t125.5 -332q0 -154 -75 -245t-216 -109zM428 1245v-407h139q121 0 173.5 47.5t52.5 156.5t-52 156t-174 47h-139zM345 1899 l199 -264h-197l-286 264h284zM720 1899l199 -264h-197l-286 264h284z" />
<glyph unicode="&#x211;" d="M242 0zM1151 811q-48 44 -112.5 66t-141.5 22q-93 0 -162.5 -32.5t-107.5 -94.5q-24 -38 -33.5 -92t-9.5 -164v-516h-293v1120h293v-174q43 96 132 148.5t208 52.5q60 0 117.5 -14.5t109.5 -42.5v-279zM836 1638l194 -376h-163l-248 376h217zM473 1638l215 -376h-174 l-272 376h231z" />
<glyph unicode="&#x212;" d="M133 0zM807 705q44 -9 76.5 -41.5t79.5 -126.5l270 -537h-324l-180 377q-8 16 -21 44q-79 169 -186 169h-94v-590h-295v1493h426q288 0 413.5 -102t125.5 -332q0 -154 -75 -245t-216 -109zM428 1245v-407h139q121 0 173.5 47.5t52.5 156.5t-52 156t-174 47h-139z M231 1635h141q20 60 69 90.5t125 30.5q77 0 125 -30t68 -91h143q-15 129 -101.5 196.5t-234.5 67.5q-147 0 -233.5 -67.5t-101.5 -196.5z" />
<glyph unicode="&#x213;" d="M291 0zM1151 811q-48 44 -112.5 66t-141.5 22q-93 0 -162.5 -32.5t-107.5 -94.5q-24 -38 -33.5 -92t-9.5 -164v-516h-293v1120h293v-174q43 96 132 148.5t208 52.5q60 0 117.5 -14.5t109.5 -42.5v-279zM381 1309q6 144 92.5 220.5t242.5 76.5q157 0 243.5 -76.5 t92.5 -220.5h-143q-11 70 -60.5 107t-132.5 37t-133 -37.5t-61 -106.5h-141z" />
<glyph unicode="&#x214;" d="M106 0zM106 551v942h295v-1016q0 -112 57 -175.5t158 -63.5t158 63.5t57 175.5v1016h295v-942q0 -304 -121 -442t-389 -138q-267 0 -388.5 138t-121.5 442zM395 1899l199 -264h-197l-286 264h284zM770 1899l199 -264h-197l-286 264h284z" />
<glyph unicode="&#x215;" d="M142 0zM160 391v729h293v-684q0 -121 34 -173t113 -52t123.5 70t44.5 196v643h293v-1120h-293v166q-31 -93 -105.5 -144t-179.5 -51q-160 0 -241.5 106t-81.5 314zM736 1638l194 -376h-163l-248 376h217zM373 1638l215 -376h-174l-272 376h231z" />
<glyph unicode="&#x216;" d="M106 0zM106 551v942h295v-1016q0 -112 57 -175.5t158 -63.5t158 63.5t57 175.5v1016h295v-942q0 -304 -121 -442t-389 -138q-267 0 -388.5 138t-121.5 442zM281 1635h141q20 60 69 90.5t125 30.5q77 0 125 -30t68 -91h143q-15 129 -101.5 196.5t-234.5 67.5 q-147 0 -233.5 -67.5t-101.5 -196.5z" />
<glyph unicode="&#x217;" d="M160 0zM160 391v729h293v-684q0 -121 34 -173t113 -52t123.5 70t44.5 196v643h293v-1120h-293v166q-31 -93 -105.5 -144t-179.5 -51q-160 0 -241.5 106t-81.5 314zM281 1309q6 144 92.5 220.5t242.5 76.5q157 0 243.5 -76.5t92.5 -220.5h-143q-11 70 -60.5 107t-132.5 37 t-133 -37.5t-61 -106.5h-141z" />
<glyph unicode="&#x218;" d="M129 0zM461 -198h282l-177 -306h-194zM510 655q-223 85 -302 178.5t-79 251.5q0 203 130 319t357 116q103 0 206 -23.5t204 -69.5v-288q-95 67 -193 102t-194 35q-107 0 -164 -43t-57 -123q0 -62 41.5 -102.5t173.5 -89.5l127 -48q180 -66 265 -175t85 -275 q0 -226 -133.5 -337.5t-403.5 -111.5q-111 0 -222.5 26.5t-215.5 78.5v305q118 -84 228.5 -125t218.5 -41q109 0 169 49.5t60 138.5q0 67 -40 117.5t-116 79.5z" />
<glyph unicode="&#x219;" d="M172 0zM461 -198h282l-177 -306h-194zM991 1085v-256q-81 52 -168.5 78.5t-175.5 26.5q-98 0 -148 -28.5t-50 -84.5q0 -80 214 -130l11 -3l84 -20q160 -38 234.5 -122.5t74.5 -228.5q0 -173 -113.5 -259.5t-341.5 -86.5q-101 0 -207 17.5t-215 52.5v256q97 -55 197.5 -84 t194.5 -29q103 0 156 30t53 87q0 56 -37.5 86t-178.5 64l-81 18q-168 38 -245 119t-77 217q0 162 117 252t329 90q95 0 189.5 -15.5t183.5 -46.5z" />
<glyph unicode="&#x21a;" d="M90 0zM461 -198h282l-177 -306h-194zM764 0h-295v1235h-379v258h1053v-258h-379v-1235z" />
<glyph unicode="&#x21b;" d="M111 0zM564 -198h282l-177 -306h-194zM690 1438v-318h383v-225h-383v-530q0 -75 36.5 -107.5t121.5 -32.5h225v-225h-246q-252 0 -341 80.5t-89 298.5v516h-286v225h286v318h293z" />
<glyph unicode="&#x21c;" d="M861 674q149 -36 233.5 -139t84.5 -224q0 -104 -44 -191t-128 -160t-223.5 -140.5t-314 -126.5t-415.5 -123v283q24 5 62 15t110 33t141.5 49.5t146.5 65.5t133.5 80.5t94 95t37.5 108.5q0 64 -35 110.5t-82.5 67t-98.5 20.5q-56 0 -120 -25l-216 -85v254l234 95 q81 33 140 72.5t88.5 72.5t46 72t19.5 61.5t3 50.5q0 54 -25 93.5t-65.5 59t-80.5 28.5t-80 9q-155 0 -389 -156v256q240 164 475 164q118 0 215 -28t158 -72t102.5 -100.5t58.5 -109.5t17 -102q0 -287 -283 -434z" />
<glyph unicode="&#x21d;" d="M837 461q85 -22 145 -58.5t88.5 -79.5t40.5 -80.5t12 -75.5q0 -408 -1013 -600v229q22 5 56.5 13t100 26.5t127.5 40t131 53t120 65.5t84.5 77t33.5 88q0 74 -60 117t-135 43q-52 0 -108 -20l-194 -69v206l211 77q75 27 128 60t79.5 59.5t41 58.5t16.5 48.5t2 39.5 q0 44 -23 76t-59.5 48t-72 23t-71.5 7q-139 0 -350 -126v207q205 133 452 133q103 0 185.5 -21t134.5 -54.5t87 -78.5t49.5 -91t14.5 -94q0 -113 -73 -204t-181 -143z" />
<glyph unicode="&#x21e;" d="M137 0zM461 1635l-221 264h178l198 -162l199 162h178l-223 -264h-309zM137 1493h295v-569h369v569h295v-1493h-295v664h-369v-664h-295v1493z" />
<glyph unicode="&#x21f;" d="M172 0zM461 1635l-221 264h178l198 -162l199 162h178l-223 -264h-309zM1071 727v-727h-291v682q0 121 -34.5 173t-112.5 52q-80 0 -125 -70.5t-45 -195.5v-641h-291v1556h291v-604q31 93 106 144t181 51q159 0 240 -105.5t81 -314.5z" />
<glyph unicode="&#x220;" d="M1125 942v-1368h-294v1441q0 129 -47 184.5t-153 55.5q-109 0 -168 -75q-62 -78 -62 -208v-972h-295v1493h295v-240q37 128 126.5 198.5t215.5 70.5q189 0 285.5 -145.5t96.5 -434.5z" />
<glyph unicode="&#x221;" d="M958 216q4 -6 49 -5q104 0 104 66.5t-42 66.5q-52 0 -111 -128zM858 354q88 234 212 234q154 0 155 -240q2 -377 -243 -377q-117 0 -120 10l-43 -121h-143q31 97 54 168q-68 28 -129 149q-30 -108 -66 -144q-62 -62 -138 -62q-177 0 -283 154t-106 434q0 284 107.5 436 t288.5 152q60 0 108 -47q29 -27 54 -72v528h292v-1202zM301 557q0 -162 34 -254t94 -92t94.5 92t34.5 254t-34.5 254t-94.5 92t-94 -92t-34 -254z" />
<glyph unicode="&#x224;" d="M137 1493h1010v-244l-692 -989h706v-260h-1q-7 -216 -90 -316q-90 -108 -300 -108h-121v225h39q98 0 141 55q34 44 40 144h-754v244l671 989h-649v260z" />
<glyph unicode="&#x225;" d="M186 1120h895v-229l-589 -672h589v-219h-1q-7 -216 -90 -316q-90 -108 -300 -108h-121v225h39q98 0 141 55q34 44 40 144h-627v229l590 672h-566v219z" />
<glyph unicode="&#x226;" d="M33 0zM616 1223l-139 -611h279zM436 1493h361l403 -1493h-295l-92 369h-395l-90 -369h-295zM479 1899h275v-246h-275v246z" />
<glyph unicode="&#x227;" d="M94 0zM700 526q-164 0 -229 -42t-65 -144q0 -76 45 -121t122 -45q116 0 180 87.5t64 244.5v20h-117zM1108 639v-639h-291v125q-53 -74 -136 -114t-183 -40q-191 0 -297.5 101t-106.5 282q0 196 127 289.5t393 93.5h203v49q0 71 -51.5 107.5t-151.5 36.5 q-105 0 -203.5 -26.5t-205.5 -84.5v250q97 40 197 59t212 19q273 0 383.5 -111t110.5 -397zM479 1585h275v-246h-275v246z" />
<glyph unicode="&#x228;" d="M168 0zM1098 0h-930v1493h930v-260h-635v-322h575v-260h-575v-391h635v-260zM757 0q57 -62 84.5 -115t27.5 -100q0 -95 -61.5 -140.5t-188.5 -45.5q-48 0 -98.5 6.5t-103.5 19.5v156q45 -17 87 -26t78 -9q58 0 90.5 23t32.5 63q0 26 -21 67t-67 101h140z" />
</font>
</defs>
</svg>
