<?xml version="1.0" standalone="no"?>
<!DOCTYPE svg PUBLIC "-//W3C//DTD SVG 1.1//EN" "http://www.w3.org/Graphics/SVG/1.1/DTD/svg11.dtd" >
<svg xmlns="http://www.w3.org/2000/svg">
<metadata></metadata>
<defs>
<font id="texgyrepagellaitalic" horiz-adv-x="500" >
<font-face units-per-em="1000" ascent="733" descent="-267" />
<missing-glyph horiz-adv-x="250" />
<glyph unicode="&#xfb01;" horiz-adv-x="528" d="M-162 -268q13 24 23 80l14 4q22 -29 52 -29q55 0 84 90q35 109 89 450l9 56h-81l5 22q39 14 86 37l15 79q15 79 45 109q23 24 63.5 57t53.5 39q16 7 35 7q18 0 44 -9q-8 -24 -21 -89l-12 -3q-16 41 -50 41q-55 0 -79 -124l-21 -112l89 -5q34 -1 112 35q33 15 42 15 q15 0 15 -34q0 -18 -5 -42l-61 -298q-5 -21 -5 -34q0 -20 12 -20q19 0 48 21l34 26l9 -20q-112 -90 -151 -90q-34 0 -34 42q0 21 6 48l59 274l1 2q0 4 3.5 16t3.5 20q0 22 -19 22q-7 0 -27 -9l-52 -23h-90l-19 -88q-58 -268 -84.5 -354t-71.5 -139q-29 -35 -66 -56.5 t-68 -21.5q-21 0 -35 8zM408 645q0 26 17.5 46.5t39.5 20.5q15 0 26 -12t11 -29q0 -28 -16 -47.5t-39 -19.5q-18 0 -28.5 11t-10.5 30z" />
<glyph unicode="&#xfb02;" horiz-adv-x="545" d="M-162 -268q13 24 23 80l14 4q22 -29 52 -29q55 0 84 90q35 109 89 450l9 56h-81l5 22q39 14 86 37l15 79q15 78 45 109q18 18 64.5 53t64.5 43q16 7 37 7q14 0 38 -8l-7 -28q69 2 128 36l16 -8l-123 -575q-10 -46 -10 -71q0 -23 16 -23q15 0 40 18l48 34l9 -21l-35 -26 q-61 -45 -83.5 -57.5t-45.5 -12.5q-29 0 -29 39q0 20 13 77l84 399q20 97 22 136q0 15 -6 22q-7 9 -33 9h-16l-6 -41h-10q-13 37 -55 37q-35 0 -55 -27.5t-32 -92.5l-21 -112h16q59 0 91 9l4 -7q-10 -24 -17 -56h-104q-3 -19 -10 -49t-9 -39q-56 -266 -83.5 -352.5 t-72.5 -140.5q-29 -35 -66 -56.5t-68 -21.5q-21 0 -35 8z" />
<glyph unicode="&#xfb03;" horiz-adv-x="756" d="M-162 -268q13 24 23 80l14 4q22 -29 52 -29q55 0 84 90q35 109 89 450l9 56h-81l5 22q39 14 86 37l15 79q15 79 45 109q17 18 64 53t65 43q14 7 35 7q42 0 70 -13l-28 -82l-10 -4q-24 39 -72 39q-67 0 -90 -124l-21 -112h166l16 84q15 79 45 109q23 24 63.5 57t53.5 39 q16 7 35 7q18 0 44 -9q-8 -24 -21 -89l-12 -3q-16 41 -50 41q-55 0 -79 -124l-21 -112l89 -5q34 -1 112 35q33 15 42 15q15 0 15 -34q0 -18 -5 -42l-61 -298q-5 -21 -5 -34q0 -20 12 -20q19 0 48 21l34 26l9 -20q-112 -90 -151 -90q-34 0 -34 42q0 21 6 48l59 274 q1 3 4.5 19t3.5 19q0 22 -19 22q-7 0 -27 -9l-52 -23h-90l-19 -88q-58 -268 -84.5 -354t-71.5 -139q-29 -35 -66 -56.5t-68 -21.5q-21 0 -35 8q13 24 23 80l14 4q22 -29 52 -29q55 0 84 90q35 109 89 450l9 56h-167q-3 -19 -10 -49t-9 -39q-56 -266 -83.5 -352.5 t-72.5 -140.5q-29 -35 -66 -56.5t-68 -21.5q-21 0 -35 8zM648 645q0 26 17.5 46.5t39.5 20.5q15 0 26 -12t11 -29q0 -28 -16 -47.5t-39 -19.5q-18 0 -28.5 11t-10.5 30z" />
<glyph unicode="&#xfb04;" horiz-adv-x="787" d="M-162 -268q13 24 23 80l14 4q22 -29 52 -29q55 0 84 90q35 109 89 450l9 56h-81l5 22q39 14 86 37l15 79q15 79 45 109q17 18 64 53t65 43q14 7 35 7q42 0 70 -13l-28 -82l-10 -4q-24 39 -72 39q-67 0 -90 -124l-21 -112h166l16 84q15 78 45 109q18 18 64.5 53t64.5 43 q16 7 37 7q14 0 38 -8l-7 -28q69 2 128 36l16 -8l-123 -575q-10 -46 -10 -71q0 -23 16 -23q15 0 40 18l48 34l9 -21l-35 -26q-61 -45 -83.5 -57.5t-45.5 -12.5q-29 0 -29 39q0 20 13 77l84 399q20 97 22 136q-5 18 -12.5 24.5t-26.5 6.5h-16l-6 -41h-10q-13 37 -55 37 q-35 0 -55 -27.5t-32 -92.5l-21 -112h16q59 0 91 9l4 -7q-10 -24 -17 -56h-104q-3 -19 -10 -49t-9 -39q-56 -266 -83.5 -352.5t-72.5 -140.5q-29 -35 -66 -56.5t-68 -21.5q-21 0 -35 8q13 24 23 80l14 4q22 -29 52 -29q55 0 84 90q35 109 89 450l9 56h-167q-3 -19 -10 -49 t-9 -39q-56 -266 -83.5 -352.5t-72.5 -140.5q-29 -35 -66 -56.5t-68 -21.5q-21 0 -35 8z" />
<glyph horiz-adv-x="1000" />
<glyph horiz-adv-x="1000" />
<glyph unicode="&#xd;" horiz-adv-x="1000" />
<glyph unicode=" "  horiz-adv-x="250" />
<glyph unicode="&#x09;" horiz-adv-x="250" />
<glyph unicode="&#xa0;" horiz-adv-x="250" />
<glyph unicode="!" horiz-adv-x="333" d="M76 39q0 29 17.5 49.5t42.5 20.5q19 0 32 -14t13 -34q0 -28 -18 -48.5t-43 -20.5q-20 0 -32 12.5t-12 34.5zM133 194q13 93 56 442l7 71l85 26l11 -9l-123 -516l-30 -17z" />
<glyph unicode="&#x22;" d="M140 508l62 187q12 38 45 38q17 0 29 -11.5t12 -27.5q0 -21 -9 -33l-109 -153h-30zM307 508l62 187q12 38 45 38q17 0 29 -11.5t12 -27.5q0 -21 -9 -33l-109 -153h-30z" />
<glyph unicode="#" d="M4 227v56h116l21 140h-110v56h118l31 213h58l-31 -213h133l30 213h58l-30 -213h97v-56h-105l-20 -140h100v-56h-109l-31 -227h-58l31 227h-134l-33 -227h-58l33 227h-107zM178 283h134l20 140h-133z" />
<glyph unicode="$" d="M15 30q13 56 22 145h26v-90q34 -39 115 -53l44 273q-82 18 -116 50.5t-34 93.5q0 99 82 164q43 35 126 58l9 62h37l-10 -60q84 -1 134 -34l2 -10q-16 -61 -25 -115h-24v72q-32 35 -95 42l-41 -257q88 -14 124 -45q43 -35 43 -102q0 -54 -29 -104t-81 -86 q-51 -35 -119 -45l-14 -102h-41l20 101q-118 13 -155 42zM139 480q0 -41 22 -65t73 -38l40 251q-45 -1 -74 -23q-28 -20 -44.5 -54t-16.5 -71zM212 32q49 3 82 27q31 22 48.5 58t17.5 76q0 47 -23 70.5t-82 37.5z" />
<glyph unicode="%" horiz-adv-x="889" d="M74 522q0 70 54.5 123.5t125.5 53.5q57 0 94.5 -39t37.5 -98q0 -77 -49.5 -130t-121.5 -53q-61 0 -101 40.5t-40 102.5zM144 499q0 -45 19 -71t51 -26q50 0 78 59t28 128q0 41 -17.5 64t-48.5 23q-47 0 -78.5 -51t-31.5 -126zM206 -7l424 717h44l-427 -717h-41zM497 143 q0 70 54.5 123.5t125.5 53.5q57 0 94.5 -39t37.5 -98q0 -77 -49.5 -130t-121.5 -53q-61 0 -101 40.5t-40 102.5zM567 120q0 -45 19 -71t51 -26q50 0 78 59t28 128q0 41 -17.5 64t-48.5 23q-47 0 -78.5 -51t-31.5 -126z" />
<glyph unicode="&#x26;" horiz-adv-x="778" d="M47 173q0 90 60 141q27 24 57.5 39.5t91.5 36.5q-42 20 -60.5 43t-18.5 57q0 51 45.5 104t114.5 82q36 16 80 16q50 0 97 -25l-26 -119h-23v62q-49 32 -90 32q-53 0 -89.5 -35t-36.5 -85q0 -69 69 -94q24 -9 71 -9q-20 -40 -20 -48v-2h-36q-90 0 -146.5 -49t-56.5 -126 q0 -74 56 -119.5t147 -45.5q92 0 161.5 51t69.5 119q0 40 -25 64.5t-65 24.5q-35 0 -50.5 -16.5t-26.5 -66.5l-23 2l8 99q23 23 47 32.5t78 18.5l111 18q113 18 113 81q0 19 -8 29.5t-30 22.5l21 16q28 -13 40 -31.5t12 -48.5q0 -50 -33.5 -82.5t-92.5 -40.5l-85 -12l17 -2 q24 -3 43 -29t19 -55q0 -54 -45.5 -107.5t-125.5 -93.5t-176 -40q-110 0 -175 51.5t-65 139.5z" />
<glyph unicode="'" horiz-adv-x="333" d="M140 508l62 187q12 38 45 38q17 0 29 -11.5t12 -27.5q0 -21 -9 -33l-109 -153h-30z" />
<glyph unicode="(" horiz-adv-x="333" d="M54 257q0 148 85 282q31 48 66.5 89t102.5 105l23 -21q-69 -78 -102 -129t-58 -114q-45 -115 -45 -259q0 -148 48 -248l26 -55l-22 -13q-80 129 -103 210q-21 76 -21 153z" />
<glyph unicode=")" horiz-adv-x="333" d="M2 -85q69 78 102 129t58 114q45 116 45 259q0 147 -48 248l-26 55l22 13q80 -129 103 -210q21 -76 21 -153q0 -149 -86 -282q-52 -82 -168 -194z" />
<glyph unicode="*" horiz-adv-x="389" d="M76 608l33 57h10l104 -105l22 141l10 5l63 -18v-8l-71 -131l140 25l7 -5l6 -58l-6 -6l-145 19l65 -120l-4 -8l-58 -28l-7 4l-22 142l-107 -97h-12l-26 57l4 7l127 56l-128 62z" />
<glyph unicode="+" horiz-adv-x="606" d="M40 222v56h235v235h56v-235h235v-56h-235v-235h-56v235h-235z" />
<glyph unicode="," horiz-adv-x="250" d="M8 -133q57 72 87 195l8 32l91 29l9 -13q-47 -109 -153 -240l-35 -13z" />
<glyph unicode="-" horiz-adv-x="333" d="M19 223l19 58h266l-18 -58h-267z" />
<glyph unicode="." horiz-adv-x="250" d="M53 42q0 29 17.5 49.5t42.5 20.5q19 0 32 -14t13 -34q0 -28 -18 -48.5t-43 -20.5q-20 0 -32 12.5t-12 34.5z" />
<glyph unicode="/" horiz-adv-x="296" d="M-40 -119l372 852h60l-372 -852h-60z" />
<glyph unicode="0" d="M36 231q0 102 26.5 202t70.5 164q71 102 175 102q80 0 126 -62t46 -169q0 -92 -21.5 -186t-58.5 -161q-72 -132 -192 -132q-83 0 -127.5 63t-44.5 179zM112 178q0 -160 100 -160q45 0 78.5 37t60.5 116q22 65 37.5 161t15.5 170q0 168 -102 168q-53 0 -88.5 -48 t-63.5 -157q-38 -154 -38 -287z" />
<glyph unicode="1" d="M54 -3l5 27l85 10q23 3 32.5 16t15.5 52l86 527q-15 -6 -27 -9.5t-27 -9.5t-49 -23l-84 -41l-7 5l11 59l24 6q99 25 140 42l100 41l15 -11q-17 -79 -33.5 -171.5t-35 -205t-29.5 -175.5q-8 -48 -8 -60q0 -26 12 -36t47 -12l71 -4l-5 -27q-84 3 -169 3q-84 0 -170 -3z" />
<glyph unicode="2" d="M12 -3v18l49 52q108 113 190 219q101 131 101 237q0 49 -31 80t-80 31q-43 0 -74.5 -24t-68.5 -84l-22 9l60 120q60 44 132 44q77 0 123 -43.5t46 -117.5q0 -109 -89 -206l-247 -269h210q52 0 115 11l6 -8l-17 -69q-101 3 -201 3q-102 0 -202 -3z" />
<glyph unicode="3" d="M22 33l28 145l24 -5q-4 -32 -4 -43q0 -50 33 -78.5t90 -28.5q38 0 70.5 18t53.5 47.5t32.5 66t11.5 73.5q0 64 -35.5 99t-99.5 35q-34 0 -78 -16l-6 12l18 43q16 0 44 -2q64 -3 110 40.5t46 105.5q0 42 -27.5 67.5t-73.5 25.5q-22 0 -39 -5t-32.5 -17.5t-35.5 -35.5 l-21 -24l-19 13l58 99q67 31 116 31q45 0 80 -16.5t54 -46t19 -67.5q0 -36 -14.5 -65.5t-46 -56t-84.5 -54.5q79 -19 116 -52.5t37 -105.5q0 -102 -81 -174t-196 -72q-82 0 -148 44z" />
<glyph unicode="4" d="M15 192v31l337 461l69 15l8 -5l-83 -446h128l4 -5l-16 -55q-51 3 -53 3h-73l-9 -53q-9 -52 -9 -84q0 -16 36 -20l87 -10l-5 -27q-82 3 -165 3t-166 -3l5 27l86 10q25 3 35.5 14t16.5 42l20 102h-253zM75 248h203l67 373z" />
<glyph unicode="5" d="M14 41q14 49 29 139l23 -5q-3 -24 -3 -39q0 -50 34 -80.5t90 -30.5q81 0 126.5 66.5t45.5 155.5q0 68 -32.5 105t-91.5 37q-34 0 -61 -13.5t-59 -46.5l-21 9l64 350l8 5l21 -1q122 -6 146 -6l120 3l32 1l6 -9l-35 -58q-85 -5 -147 -5q-53 0 -121 5l-51 -241q58 52 139 52 q77 0 123 -45.5t46 -122.5q0 -68 -38 -138q-35 -65 -98.5 -102t-139.5 -37q-88 0 -155 52z" />
<glyph unicode="6" d="M49 200q0 206 133 368q55 68 112.5 99.5t126.5 31.5q25 0 48 -5l-16 -59h-8q-37 18 -65 18q-102 0 -171 -122q-45 -79 -76 -220q47 57 88 81.5t91 24.5q64 0 100 -40.5t36 -113.5q0 -76 -35 -138q-33 -60 -92 -98t-119 -38q-72 0 -112.5 56t-40.5 155zM125 174 q0 -63 30 -101t79 -38q59 0 98.5 57t39.5 144q0 59 -28.5 92.5t-78.5 33.5q-61 0 -100.5 -53t-39.5 -135z" />
<glyph unicode="7" d="M53 5q38 57 101 159l278 449h-242q-16 0 -99 -5l-6 4l15 77q147 -3 295 -3q53 0 107 3v-36l-126 -203q-120 -193 -236 -453q-23 3 -38 3q-23 0 -44 -3z" />
<glyph unicode="8" d="M36 130q0 77 62 142q41 42 119 80q-100 57 -100 138q0 78 69 143.5t150 65.5q61 0 97 -33.5t36 -89.5q0 -57 -31.5 -99t-117.5 -99q65 -36 88 -67t23 -83q0 -94 -73.5 -166.5t-169.5 -72.5q-69 0 -110.5 38.5t-41.5 102.5zM112 148q0 -55 28.5 -86t80.5 -31q58 0 96 46.5 t38 117.5q0 45 -17 71.5t-65 54.5l-29 17q-132 -69 -132 -190zM185 522q0 -68 72 -109l34 -19q110 71 110 162q0 45 -27 73t-70 28q-51 0 -85 -38.5t-34 -96.5z" />
<glyph unicode="9" d="M32 111l21 8q23 -44 50 -63t65 -19q97 0 156 125q33 70 62 215q-44 -55 -82 -78t-85 -23q-67 0 -107.5 45t-40.5 119q0 104 72 181.5t169 77.5q51 0 86 -25t52.5 -73.5t17.5 -119.5q0 -102 -29.5 -197t-83.5 -166q-46 -61 -102 -95t-111 -34q-41 0 -79 19q-18 74 -31 103 zM147 469q0 -66 29.5 -102.5t82.5 -36.5q28 0 53 13.5t42.5 37t27.5 56.5t10 71q0 66 -30 106t-79 40q-59 0 -97.5 -52t-38.5 -133z" />
<glyph unicode=":" horiz-adv-x="250" d="M44 42q0 29 17.5 49.5t42.5 20.5q19 0 32 -14t13 -34q0 -28 -18 -48.5t-43 -20.5q-20 0 -32 12.5t-12 34.5zM102 388q0 29 17.5 49.5t42.5 20.5q19 0 32 -14t13 -34q0 -29 -18 -49t-43 -20q-20 0 -32 12.5t-12 34.5z" />
<glyph unicode=";" horiz-adv-x="250" d="M-9 -136q57 72 87 195l8 32l91 29l9 -13q-47 -109 -153 -240l-35 -13zM114 386q0 29 17.5 49.5t42.5 20.5q19 0 32 -14t13 -34q0 -29 -18 -49t-43 -20q-20 0 -32 12.5t-12 34.5z" />
<glyph unicode="&#x3c;" horiz-adv-x="606" d="M68 225v50l458 218v-62l-381 -181l381 -181v-62z" />
<glyph unicode="=" horiz-adv-x="606" d="M40 136v56h526v-56h-526zM40 309v56h526v-56h-526z" />
<glyph unicode="&#x3e;" horiz-adv-x="606" d="M68 7v62l381 181l-381 181v62l458 -218v-50z" />
<glyph unicode="?" d="M114 39q0 29 17.5 49.5t42.5 20.5q19 0 32 -14t13 -34q0 -28 -18 -48.5t-43 -20.5q-20 0 -32 12.5t-12 34.5zM115 571l40 98q60 37 115 37q70 0 113.5 -37t43.5 -97q0 -74 -74 -145l-104 -100q-50 -47 -50 -77q0 -23 27 -51l-25 -6q-38 24 -38 63q0 49 55 111l70 79 q57 64 57 116q0 37 -28 61t-71 24q-31 0 -50 -11.5t-39 -40.5l-20 -30z" />
<glyph unicode="@" horiz-adv-x="747" d="M27 338q0 155 105 261.5t257 106.5q139 0 234 -84.5t95 -208.5q0 -114 -73 -192q-34 -37 -79 -60t-80 -23q-31 0 -50 23t-22 65q-37 -49 -61.5 -65.5t-60.5 -16.5q-56 0 -94 43t-38 105q0 86 66.5 156t147.5 70q38 0 59 -20t30 -65l20 76h75l-79 -291q-2 -8 -2 -16 q0 -16 9 -26.5t22 -10.5q37 0 89 52q80 83 80 193q0 105 -83 178t-203 73q-136 0 -227.5 -91.5t-91.5 -225.5q0 -136 93.5 -226.5t233.5 -90.5q107 0 190 65q38 29 77 84h47q-38 -66 -77 -101q-104 -93 -242 -93q-155 0 -261 103t-106 253zM236 260q0 -39 19.5 -65.5 t47.5 -26.5q55 0 95 73q20 35 34 86.5t14 89.5q0 33 -16 55t-41 22q-41 0 -74 -35q-35 -37 -57 -92.5t-22 -106.5z" />
<glyph unicode="A" horiz-adv-x="722" d="M-19 -3v30l20 5q26 6 44 22.5t44 57.5l373 593h46l87 -625q4 -34 12.5 -41t43.5 -11l26 -3v-28q-60 3 -122 3q-61 0 -122 -3v28l44 3q43 3 43 27q0 4 -2 22l-27 200h-246l-102 -175q-26 -44 -26 -55q0 -7 9 -12.5t22 -6.5l52 -3v-28q-52 3 -107 3q-57 0 -112 -3zM270 313 h216l-37 288z" />
<glyph unicode="B" horiz-adv-x="611" d="M26 -3l5 26q32 5 44 12t14 20l87 504q9 54 9 76q0 26 -35 27l-53 2l3 28q75 -3 151 -3q25 0 75 1.5t75 1.5q62 0 110 -36t48 -94q0 -76 -69 -137q-41 -35 -113 -60q92 -13 125 -40q41 -33 41 -98q0 -118 -123 -191q-65 -39 -142 -39q-27 0 -80.5 1.5t-80.5 1.5 q-46 0 -91 -3zM166 41q112 -7 116 -7q75 0 124 50t49 127q0 129 -153 129h-85zM223 376h52q93 0 145.5 44.5t52.5 123.5q0 111 -121 111q-14 0 -40 -2.5t-40 -2.5z" />
<glyph unicode="C" horiz-adv-x="667" d="M45 284q0 230 177 350q107 72 234 72q86 0 195 -41q-20 -66 -27 -146h-27v84q-78 50 -179 50q-120 0 -190 -72q-95 -97 -95 -272q0 -134 62.5 -204t180.5 -70q59 0 106.5 16t117.5 59l10 -7l-10 -36q-68 -46 -126.5 -65.5t-130.5 -19.5q-144 0 -221 78t-77 224z" />
<glyph unicode="D" horiz-adv-x="778" d="M28 -3l5 26q2 0 10 2t11.5 3t10.5 4t10 5.5t6.5 7t4.5 10.5l87 504q9 54 9 76q0 26 -35 27l-53 2l3 28q61 -3 123 -3q34 0 102 1.5t102 1.5q67 0 130 -13t96 -37q91 -64 91 -211q0 -124 -67.5 -230.5t-184.5 -166.5q-74 -37 -173 -37q-32 0 -97.5 1.5t-97.5 1.5 q-47 0 -93 -3zM168 56q102 -15 161 -15q133 0 214 83q106 108 106 291q0 123 -64.5 181.5t-200.5 58.5q-19 0 -57.5 -2.5t-58.5 -2.5l-96 -557q-4 -24 -4 -37z" />
<glyph unicode="E" horiz-adv-x="611" d="M30 -3l5 26q33 5 45.5 11.5t14.5 20.5l87 504q9 48 9 77q0 25 -35 26l-54 2l3 28q79 -3 160 -3q40 0 118.5 1.5t117.5 1.5q36 0 69 -3q-17 -57 -21 -152h-24l-8 89q-2 24 -107 24q-41 -1 -130 -4q-5 -10 -9 -32l-42 -238h37l219 6l4 -7l-19 -45q-9 0 -16 1t-14 1.5 t-32.5 1t-69.5 0.5h-117l-43 -253q-2 -12 -2 -35q73 -7 131 -7q112 0 150 10q16 4 24 15t15 37l16 60h27q-16 -80 -21 -125l-4 -36q-5 0 -29.5 -1.5t-75.5 -1.5q-37 0 -112.5 1.5t-112.5 1.5q-77 0 -154 -3z" />
<glyph unicode="F" horiz-adv-x="556" d="M0 -3l4 28l36 3q31 2 38.5 15t19.5 82l75 434q9 54 9 76q0 26 -35 27l-56 2l3 28q75 -3 152 -3q39 0 117.5 1.5t117.5 1.5q34 0 67 -3q-16 -57 -21 -152h-24l-8 89q-2 24 -103 24q-101 -4 -123 -4q-5 -11 -9 -32l-46 -271h37l219 6l4 -7l-19 -45q-9 0 -16 1t-14 1.5 t-32.5 1t-69.5 0.5h-117l-36 -223q-2 -8 -2 -21q0 -15 8 -21.5t28 -7.5l64 -3l-3 -28q-69 3 -138 3q-64 0 -127 -3z" />
<glyph unicode="G" horiz-adv-x="722" d="M50 274q0 229 179 358q104 74 237 74q96 0 209 -41q-20 -66 -27 -146h-27v84q-78 50 -187 50q-124 0 -197 -74q-99 -99 -99 -282q0 -133 64 -201.5t188 -68.5q76 0 138 33l18 93q7 34 7 59q0 18 -14 23.5t-70 8.5l-34 2l5 26q64 -3 129 -3q62 0 125 3l-2 -26l-32 -6 q-23 -4 -27 -21l-23 -135q-2 -14 2 -40l-4 -7q-23 -4 -56 -15q-120 -40 -197 -40q-147 0 -226 76t-79 216z" />
<glyph unicode="H" horiz-adv-x="778" d="M-3 -3l4 28l41 3q30 2 38 15t20 82l74 434q9 56 9 76q0 26 -35 27l-47 2l3 28q70 -3 141 -3q57 0 114 3l-3 -28l-42 -3q-28 -2 -37 -10.5t-14 -37.5l-42 -228h370l30 174q9 54 9 76q0 26 -35 27l-48 2l3 28q70 -3 143 -3q53 0 107 3l-3 -28l-36 -3q-28 -2 -37 -10.5 t-14 -37.5l-92 -520q-4 -23 -4 -35q0 -29 36 -30l58 -3l-3 -28q-66 3 -132 3q-71 0 -141 -3l4 28l50 3q31 1 37 14q7 9 21 83l40 215q-112 3 -184 3l-184 -3l-42 -247q-4 -25 -4 -35q0 -16 8 -22t28 -8l49 -3l-3 -28q-62 3 -123 3q-66 0 -132 -3z" />
<glyph unicode="I" horiz-adv-x="333" d="M7 -3l3 28l36 3q30 2 38.5 16t19.5 81l72 434q9 49 9 77q0 25 -35 26l-47 2l3 28q67 -3 136 -3q56 0 112 3l-3 -28l-35 -3q-29 -2 -37.5 -10t-13.5 -38l-89 -535q-2 -10 -2 -21q0 -15 8 -21t28 -8l52 -3l-3 -28q-63 3 -126 3t-126 -3z" />
<glyph unicode="J" horiz-adv-x="333" d="M-35 -170q11 -4 29 -4q70 0 92 153l95 643q1 5 1 13q0 26 -35 27l-47 2l3 28q71 -3 141 -3q57 0 114 3l-3 -28l-42 -3q-28 -2 -37 -10.5t-14 -37.5l-85 -559q-11 -78 -34 -132q-25 -61 -62 -94.5t-78 -33.5q-19 0 -35 10z" />
<glyph unicode="K" horiz-adv-x="667" d="M13 -3l4 28l41 3q30 2 38 15t20 82l73 434q9 49 9 76q0 26 -35 27l-47 2l3 28q71 -3 141 -3q57 0 114 3l-3 -28l-42 -3q-28 -2 -37 -10.5t-14 -37.5l-45 -260q89 69 149 131l128 130q38 38 38 49v29q33 -3 67 -3q33 0 68 3v-27h-21q-27 0 -54 -25l-292 -273l246 -302 q31 -38 64 -38h20v-30q-33 3 -68 3q-34 0 -69 -3q-80 109 -123.5 162.5t-154.5 180.5l-43 -262q-2 -8 -2 -21q0 -15 8 -21t28 -8l49 -3l-3 -28q-62 3 -123 3q-66 0 -132 -3z" />
<glyph unicode="L" horiz-adv-x="556" d="M16 -3l5 26q33 5 45.5 11.5t14.5 20.5l86 504q9 49 9 77q0 25 -35 26l-47 2l3 28q67 -3 135 -3q60 0 120 3l-3 -28l-42 -3q-28 -2 -37 -10.5t-14 -37.5l-92 -532q-2 -12 -2 -35q72 -7 142 -7q122 0 144 11q14 5 27 53l17 62h31q-25 -119 -23 -165q-35 -3 -105 -3 q-37 0 -112 1.5t-113 1.5q-78 0 -154 -3z" />
<glyph unicode="M" horiz-adv-x="944" d="M-19 -3l3 26q41 4 58 17.5t28 52.5l145 509q3 10 3 20q0 19 -15.5 28t-54.5 12l-26 2l3 28q40 -3 83 -3q42 0 84 3l150 -578l246 422q30 51 46.5 81t20.5 38t8.5 17.5t9.5 19.5q40 -3 83 -3q42 0 84 3l-3 -28l-38 -2q-45 -3 -46 -31l-41 -531l-1 -37q-1 -16 13 -24.5 t41 -10.5l37 -3l-3 -28q-66 3 -133 3q-66 0 -134 -3l3 28l31 3q39 4 52.5 11t14.5 28l37 520q-58 -98 -166.5 -285.5t-124.5 -215.5l-57 -104h-23l-149 578l-124 -464q-7 -25 -7 -41q0 -22 49 -27l38 -3l-3 -28q-54 3 -110 3q-57 0 -112 -3z" />
<glyph unicode="N" horiz-adv-x="778" d="M2 -3l5 28l31 3q27 2 36 14.5t18 59.5l88 474q5 15 5 30t-30 39q-19 15 -50 17l-35 2l5 28q41 -3 81 -3t81 3l345 -589l80 489q5 33 5 46q0 23 -36 24l-47 2l5 28q53 -3 105 -3q54 0 110 3l-5 -28l-37 -2q-20 -1 -28.5 -8t-15 -29.5t-16.5 -82.5l-94 -553h-50l-338 577 l-80 -464q-3 -16 -3 -30q0 -25 9.5 -33.5t39.5 -10.5l42 -3l-5 -28q-54 3 -110 3q-55 0 -111 -3z" />
<glyph unicode="O" horiz-adv-x="778" d="M53 272q0 188 116.5 311t294.5 123q135 0 209.5 -73.5t74.5 -207.5q0 -119 -55 -222t-149 -161q-95 -60 -221 -60q-132 0 -201 74t-69 216zM141 277q0 -125 55.5 -189t163.5 -64q118 0 192 76q51 53 79.5 134t28.5 175q0 166 -97 223q-53 32 -130 32q-113 0 -183 -71 q-52 -52 -80.5 -135t-28.5 -181z" />
<glyph unicode="P" horiz-adv-x="611" d="M9 -3l4 28l41 3q14 1 20.5 3t12.5 5.5t9.5 16.5t7 27t8.5 45l74 434q9 56 9 76q0 26 -35 27l-55 2l3 28q82 -3 166 -3q23 0 69 1.5t69 1.5q45 0 85.5 -16t68.5 -51.5t28 -83.5q0 -102 -71 -177.5t-168 -75.5q-39 0 -86 23l-2 31q50 -19 79 -19q66 0 113 57.5t47 138.5 q0 70 -37 103.5t-114 33.5q-23 0 -71 -8q-2 -11 -8.5 -37.5t-7.5 -30.5l-82 -487q-4 -25 -4 -35q0 -29 36 -30l65 -3l-3 -28q-69 3 -139 3q-66 0 -132 -3z" />
<glyph unicode="Q" horiz-adv-x="778" d="M53 272q0 188 116.5 311t294.5 123q135 0 209.5 -73.5t74.5 -207.5q0 -119 -55 -222t-149 -161q-95 -60 -221 -60q-132 0 -201 74t-69 216zM126 -142q-3 56 33 91.5t92 35.5q31 0 66 -14l236 -96q39 -15 62 -15q59 0 68 79h25q-8 -73 -36.5 -106.5t-84.5 -33.5 q-30 0 -51.5 7t-66.5 30l-145 76q-54 29 -96 29q-77 0 -77 -113l-24 13zM141 277q0 -125 55.5 -189t163.5 -64q118 0 192 76q51 53 79.5 134t28.5 175q0 166 -97 223q-53 32 -130 32q-113 0 -183 -71q-52 -52 -80.5 -135t-28.5 -181z" />
<glyph unicode="R" horiz-adv-x="667" d="M9 -3l4 28l41 3q30 2 38 15.5t20 81.5l75 434q9 54 9 76q0 26 -35 27l-56 2l3 28q75 -3 151 -3q25 0 75 1.5t75 1.5q68 0 121.5 -35.5t53.5 -96.5q0 -94 -89 -158q-48 -35 -120 -48l184 -275q21 -31 35.5 -41t44.5 -14v-27q-29 3 -58 3q-37 0 -74 -3q-87 148 -240 370 l3 11h44q78 0 130 47t52 118q0 113 -133 113q-37 0 -76 -8q-6 -22 -16 -68l-85 -487q-4 -23 -4 -35q0 -15 8 -22t28 -8l49 -3l-3 -28q-62 3 -123 3q-66 0 -132 -3z" />
<glyph unicode="S" horiz-adv-x="556" d="M42 20q15 72 24 152h30v-99q61 -43 136 -43q77 0 125.5 44.5t48.5 116.5q0 86 -81 105l-95 23q-63 15 -92.5 51.5t-29.5 100.5q0 88 63 151q86 84 203 84q67 0 132 -34q-19 -60 -25 -135h-30v76q-42 45 -112 45q-69 0 -114 -42.5t-45 -107.5q0 -97 96 -117l65 -14 q76 -17 110 -50.5t34 -92.5q0 -102 -86 -177t-202 -75q-79 0 -155 38z" />
<glyph unicode="T" horiz-adv-x="611" d="M53 528l18 164q141 -3 282 -3t282 3l-27 -164h-28l4 64q2 21 -4 37q-4 17 -117 17h-73l-94 -553q-4 -21 -4 -35q0 -29 36 -30l59 -3l-3 -28q-66 3 -133 3q-71 0 -142 -3l4 28l51 3q30 2 38.5 15.5t19.5 81.5l86 521h-112q-70 0 -81 -13q-11 -12 -18 -45l-15 -60h-29z" />
<glyph unicode="U" horiz-adv-x="778" d="M88 664l3 28q45 -3 90 -3q44 0 89 3l-88 -477q-7 -36 -7 -60q0 -54 37 -85t102 -31q129 0 242 138l71 445q3 21 -4.5 30t-29.5 10l-48 2l3 28q68 -3 137 -3q56 0 113 3l-3 -28l-36 -3q-28 -2 -37 -10.5t-14 -37.5l-85 -507q-6 -38 -6 -56t32 -21l60 -4l-5 -28 q-42 3 -85 3q-44 0 -89 -3l-5 5q19 79 27 127q-39 -45 -68.5 -68t-74.5 -46q-68 -34 -133 -34q-84 0 -131.5 43.5t-47.5 120.5q0 28 6 61l64 375q7 40 7 58q0 13 -7 17.5t-27 5.5z" />
<glyph unicode="V" horiz-adv-x="722" d="M75 664v28q61 -3 124 -3t124 3v-28l-42 -2q-24 -1 -34.5 -8.5t-7.5 -29.5l71 -528l291 492q16 27 16 42q0 27 -57 32l-26 2v28q61 -3 124 -3q48 0 96 3v-28l-18 -2q-21 -2 -32 -11t-30 -40l-378 -619h-49l-88 622q-4 27 -15 36t-44 12z" />
<glyph unicode="W" horiz-adv-x="944" d="M71 664v28q55 -3 111 -3q61 0 121 3v-28l-37 -2q-48 -3 -45 -46l31 -484q10 22 116.5 237.5t159.5 330.5h18l158 -572l147 462q9 27 9 49t-41 23l-39 2l5 28q48 -3 98 -3q49 0 97 3v-28l-20 -2q-33 -3 -43 -31l-171 -507q-11 -32 -31 -106l-7 -26h-51q-22 103 -39 162 l-112 392l-224 -444q-30 -60 -50 -110h-50q-2 81 -8 166l-32 430q-3 43 -12.5 56.5t-40.5 17.5z" />
<glyph unicode="X" horiz-adv-x="722" d="M20 -3v28l28 3q39 5 62 33l238 282l-146 270q-15 28 -30 37t-51 12l-26 2v28q66 -3 133 -3t133 3v-28l-37 -2q-43 -3 -43 -20q0 -10 14 -38l104 -199l161 196q23 28 23 42q0 16 -45 19l-33 2v28q57 -3 115 -3q57 0 114 3v-28l-28 -2q-20 -2 -31.5 -9.5t-33.5 -32.5 l-221 -252l171 -307q11 -18 24 -25t44 -9l25 -2v-28q-66 3 -133 3t-135 -3v28q32 3 54 4q20 2 26 3.5t6 7.5q0 12 -14 40l-119 226l-182 -231q-10 -13 -10 -25q0 -16 55 -22l32 -3v-28q-58 3 -119 3q-62 0 -125 -3z" />
<glyph unicode="Y" horiz-adv-x="667" d="M52 647l79 58q69 -1 114 -83.5t101 -311.5q42 111 128 226q55 75 100 111t101 50l-6 -71q-44 -8 -80 -33.5t-79 -80.5q-55 -69 -98 -146.5t-50 -119.5l-26 -168q-2 -10 -2 -21q0 -15 8 -21t28 -8l49 -3l-3 -28q-62 3 -123 3q-70 0 -139 -3l4 28l48 3q30 2 38.5 15.5 t19.5 81.5l22 132q0 12 -22 91.5t-40 128.5q-31 84 -60 121t-64 37q-14 0 -45 -12z" />
<glyph unicode="Z" horiz-adv-x="667" d="M20 -3v22l502 633h-180q-107 0 -180 -13l-6 -20q-17 -54 -21 -86h-26q11 100 11 158l118 1q118 -3 237 -3q81 0 162 3v-20l-504 -633h281q62 0 127 13q20 51 32 90l7 22h26q-20 -106 -23 -167q-234 3 -322 3z" />
<glyph unicode="[" horiz-adv-x="333" d="M16 -95l51 285q61 362 77 539l8 4q58 -2 87 -2l87 2v-28l-88 -7q-10 -1 -13.5 -6.5t-7.5 -24.5q-8 -38 -16 -84.5t-13.5 -82.5t-13.5 -87t-14 -84l-51 -343q-6 -19 -2.5 -34t27.5 -17l79 -7l-7 -28q-4 3 -90.5 2.5t-97.5 -2.5zM18 -100z" />
<glyph unicode="\" horiz-adv-x="606" d="M81 733h60l372 -733h-60z" />
<glyph unicode="]" horiz-adv-x="333" d="M7 -72l88 7q10 1 13.5 6.5t7.5 24.5q19 98 48.5 289t33.5 218l12 84q1 5 9 51t8 69q0 18 -28 21l-79 7l5 28q4 -3 90.5 -2.5t97.5 2.5l2 -5l-51 -285q-60 -357 -77 -539l-8 -4l-86 2l-86 -2v28zM313 733z" />
<glyph unicode="^" horiz-adv-x="606" d="M51 283l219 406h66l218 -406h-61l-190 344l-191 -344h-61z" />
<glyph unicode="_" d="M0 -75h500v-50h-500v50z" />
<glyph unicode="`" horiz-adv-x="333" d="M182 656q5 12 19.5 21.5t29.5 9.5t27 -18l99 -151h-34l-126 101q-22 17 -15 37z" />
<glyph unicode="a" horiz-adv-x="444" d="M4 66q0 60 21 140.5t54 147.5q19 37 46 62t74 48q37 18 75 18q36 0 85 -19l33 18l10 -9l-92 -379q-1 -3 -1 -10q0 -24 15 -24q19 0 62 36q3 2 13 11l7 -21q-116 -96 -146 -96q-24 0 -24 37q0 24 6 51l29 127q-78 -110 -138 -162q-61 -53 -95 -53q-14 0 -24 22.5t-10 54.5 zM76 99q0 -40 18 -40q25 0 67.5 41t83.5 104q45 70 74 210q-54 19 -85 19q-37 0 -58 -16.5t-39 -59.5q-26 -62 -43.5 -136t-17.5 -122z" />
<glyph unicode="b" horiz-adv-x="463" d="M37 61q0 7 1 10l101 551q2 12 2 24q0 24 -34 24h-48l4 21q94 9 160 42l12 -11l-86 -398q46 59 76.5 87.5t69.5 48.5q44 22 82 22q24 0 35 -14q21 -26 21 -92q0 -99 -45 -192.5t-117 -144.5q-69 -50 -131 -50q-41 0 -72 21.5t-31 50.5zM112 101q0 -65 71 -65q79 0 127 101 q51 110 51 215q0 72 -39 72q-22 0 -55.5 -18.5t-58.5 -44.5q-57 -60 -83 -170q-13 -53 -13 -90z" />
<glyph unicode="c" horiz-adv-x="407" d="M25 136q0 80 26 151.5t69 109.5t91 61.5t82 23.5q59 0 96 -24q-13 -37 -24 -128h-23v60q0 18 -23.5 30.5t-57.5 12.5q-48 0 -78 -26q-36 -29 -59 -98.5t-23 -149.5q0 -119 85 -119q48 0 145 65l15 10l8 -20l-50 -41q-79 -65 -157 -65q-122 0 -122 147z" />
<glyph unicode="d" d="M17 86q0 63 14 128.5t37 108.5q35 65 96 112t113 47q35 0 82 -14l28 154q2 14 2 24q0 24 -34 24h-48l4 21q94 9 160 42l12 -11l-126 -594q-8 -39 -8 -46q0 -23 14 -23q15 0 39 17l44 31l10 -19l-81 -60q-53 -39 -75 -39q-26 0 -26 35q0 38 16 102l23 91 q-50 -75 -81.5 -113t-72.5 -71q-55 -44 -98 -44q-44 0 -44 97zM89 98q0 -39 25 -39q14 0 41 16t53 41q100 96 129 235l12 59q-45 23 -106 23q-39 0 -59 -15q-37 -28 -66 -126.5t-29 -193.5z" />
<glyph unicode="e" horiz-adv-x="389" d="M15 112q0 52 19 127t42 112q30 48 97.5 89.5t116.5 41.5q38 0 61 -21.5t23 -56.5q0 -90 -124 -145q-47 -20 -69 -25l-82 -20q-8 -39 -8 -80q0 -46 20 -72t56 -26q56 0 137 58l24 17l8 -19q-70 -56 -116 -79.5t-89 -23.5q-54 0 -85 32.5t-31 90.5zM104 237q64 14 109 35 q39 19 63 51t24 65q0 24 -13 38t-35 14q-43 0 -76 -31q-39 -37 -63 -135z" />
<glyph unicode="f" horiz-adv-x="278" d="M-162 -268q4 7 12 35t11 45l14 4q13 -17 24 -23t28 -6q55 0 84 90q35 109 89 450l9 56h-81l5 22q39 14 86 37l15 79q15 79 45 109q17 18 64 53t65 43q14 7 35 7q42 0 70 -13q-5 -16 -16 -47t-12 -35l-10 -4q-24 39 -72 39q-35 0 -56.5 -30t-33.5 -94l-21 -112h16 q41 0 55 1.5t36 7.5l4 -7q-10 -24 -17 -56h-104q-3 -19 -10 -49t-9 -39q-56 -266 -83.5 -352.5t-72.5 -140.5q-29 -35 -66 -56.5t-68 -21.5q-21 0 -35 8z" />
<glyph unicode="g" d="M-37 -159q0 63 53 107q46 39 144 71q-21 18 -21 33q0 22 27 47l41 38q-11 -1 -30 -1q-58 0 -90 32.5t-32 90.5q0 107 85 171q69 52 135 52q33 0 67 -13q31 -12 51 -45q66 0 102 9l3 -6l-9 -45q-31 -4 -50 -4h-34q4 -12 4 -36q0 -67 -48 -122.5t-121 -73.5q-1 -1 -1.5 -2 t-2 -3t-2.5 -3q-21 -27 -21 -38q0 -28 47 -65l60 -49q64 -52 64 -107q0 -62 -72.5 -108.5t-169.5 -46.5q-82 0 -130.5 32t-48.5 85zM27 -145q0 -46 38.5 -74.5t100.5 -28.5t107 27.5t45 66.5q0 45 -65 96l-77 59q-66 -19 -99 -46q-50 -42 -50 -100zM126 288q0 -120 93 -120 q53 0 85.5 48t32.5 125q0 107 -87 107q-55 0 -89.5 -44.5t-34.5 -115.5z" />
<glyph unicode="h" d="M10 2q41 123 88 386l42 234q2 14 2 24q0 24 -34 24h-48l4 21q94 9 160 42l12 -11l-98 -457l20 25q61 75 98 106q102 86 158 86q29 0 29 -36q0 -26 -11 -74l-64 -256q-7 -26 -7 -40q0 -20 13 -20q15 0 61 30l26 17l10 -18q-73 -55 -106.5 -74.5t-53.5 -19.5q-30 0 -30 39 q0 25 13 77l51 196q15 55 15 89q0 22 -22 22q-32 0 -94.5 -58.5t-95.5 -119.5q-40 -74 -62 -229l-69 -16z" />
<glyph unicode="i" horiz-adv-x="278" d="M34 388l28 20q104 74 134 74q25 0 25 -26q0 -10 -6 -36l-77 -304q-7 -26 -7 -40q0 -20 13 -20q16 0 61 30l26 17l10 -18q-73 -54 -107 -74t-53 -20q-30 0 -30 39q0 31 13 77l66 240q8 30 8 44q0 21 -17 21q-13 0 -48 -23l-32 -21zM170 590q0 26 18 46.5t40 20.5 q16 0 26 -11.5t10 -29.5q0 -29 -15.5 -48t-38.5 -19q-19 0 -29.5 11t-10.5 30z" />
<glyph unicode="j" horiz-adv-x="278" d="M-70 -269l8 57q32 -19 53 -19q29 0 47 87l100 495q7 30 7 40t-5 16.5t-13 6.5q-9 0 -26 -11.5t-21 -13.5l-32 -21l-7 20l28 20q104 74 134 74q25 0 25 -25q0 -11 -6 -37l-76 -350q-37 -167 -64 -228q-54 -118 -114 -118q-24 0 -38 7zM177 590q0 26 18 46.5t40 20.5 q16 0 26 -11.5t10 -29.5q0 -29 -15.5 -48t-38.5 -19q-19 0 -29.5 11t-10.5 30z" />
<glyph unicode="k" horiz-adv-x="444" d="M8 1q69 276 82 353l48 268q2 14 2 24q0 24 -34 24h-48l4 21q94 9 160 42l12 -11l-107 -492q94 132 159.5 192t114.5 60q21 0 48 -9l-17 -63q-26 6 -36 6q-71 0 -157 -86l-14 -14q49 -156 96 -241q12 -23 26 -23q11 0 29 10l43 24l8 -19l-46 -32q-62 -44 -81 -44t-46.5 59 t-79.5 209q-53 -53 -67 -127l-23 -124l-67 -17z" />
<glyph unicode="l" horiz-adv-x="278" d="M36 30q0 31 19 102l96 468q6 36 6 48q0 22 -34 22h-48l4 21q94 9 160 42l12 -11l-129 -609q-6 -24 -6 -37q0 -20 13 -20q16 0 61 30l26 17l10 -18q-73 -54 -107 -74t-53 -20q-30 0 -30 39z" />
<glyph unicode="m" horiz-adv-x="778" d="M24 388l28 20q103 74 133 74q23 0 23 -31q0 -19 -6 -43l-33 -133q48 65 71.5 91t57.5 52q84 64 131 64q26 0 26 -31q0 -7 -7 -42l-30 -137q37 51 68 83t79 66q87 61 128 61q26 0 26 -28q0 -11 -7 -41l-75 -297q-7 -29 -7 -40q0 -20 13 -20q15 0 61 30l26 17l10 -18 q-73 -55 -106.5 -74.5t-53.5 -19.5q-30 0 -30 40q0 30 13 76l43 157q25 91 25 125q0 25 -13 25q-50 0 -137 -96q-69 -76 -94 -205l-21 -107l-69 -15l-5 11l16 67q63 263 63 324q0 21 -11 21q-46 0 -115 -76q-41 -45 -64.5 -96t-41.5 -134l-22 -102l-68 -15l-3 11 q31 107 56.5 228t25.5 159q0 25 -18 25q-10 0 -47 -25l-32 -21z" />
<glyph unicode="n" horiz-adv-x="556" d="M24 388l28 20q104 74 133 74q23 0 23 -33q0 -14 -6 -41l-38 -161q69 97 118 142q44 41 91.5 67t78.5 26t31 -36q0 -28 -11 -74l-66 -276q-2 -8 -2 -20q0 -20 13 -20q15 0 61 30l26 17l10 -18q-73 -55 -106.5 -74.5t-53.5 -19.5q-30 0 -30 40q0 23 13 76l52 212 q11 44 11 71q0 24 -17 24q-34 0 -83.5 -41.5t-90.5 -104.5q-34 -52 -53 -109t-33 -151q-26 -5 -70 -17l-7 11q31 107 56.5 228t25.5 159q0 25 -18 25q-10 0 -47 -25l-32 -21z" />
<glyph unicode="o" horiz-adv-x="444" d="M17 152q0 92 32.5 165t93.5 116q69 49 135 49q62 0 97.5 -40t35.5 -111q0 -76 -30 -153t-76 -121q-73 -68 -160 -68q-62 0 -95 42t-33 121zM93 151q0 -59 24 -91.5t68 -32.5q47 0 75 33q33 40 54 111.5t21 143.5q0 129 -94 129q-40 0 -60 -17q-37 -30 -62.5 -110.5 t-25.5 -165.5z" />
<glyph unicode="p" d="M-7 -270q12 54 32.5 155.5t24.5 122.5l58 343q4 20 4 38q0 23 -17 23q-12 0 -48 -23l-32 -21l-7 20l28 20q103 74 133 74q22 0 22 -30q0 -16 -5 -44l-24 -119q44 73 97 120q84 73 147 73q27 0 43 -30.5t16 -80.5q0 -56 -22 -128t-53 -118q-32 -47 -102 -91.5t-112 -44.5 q-19 0 -61 14l-42 -262q-41 -6 -73 -17zM125 59q37 -23 82 -23q63 0 93 44q40 57 66.5 136t26.5 140q0 68 -38 68q-62 0 -128.5 -81.5t-83.5 -177.5z" />
<glyph unicode="q" horiz-adv-x="463" d="M24 78q0 77 24.5 169t54.5 127q39 45 102 83q41 25 79 25q40 0 101 -24l33 22l14 -6q-13 -40 -27 -118l-86 -456q-12 -68 -19 -159q-39 -5 -86 -17l-9 14q21 23 27 57l76 414q-57 -101 -175 -190q-40 -30 -73 -30q-36 0 -36 89zM96 113q0 -54 22 -54t62.5 31.5t79.5 79.5 q54 67 70 141l21 95q-62 27 -97 27q-54 0 -73 -24q-31 -37 -58 -130.5t-27 -165.5z" />
<glyph unicode="r" horiz-adv-x="389" d="M26 388l28 20q103 74 133 74q23 0 23 -32q0 -15 -12 -68l-26 -126q22 47 94 151q53 75 98 75q7 0 20 -6q-12 -62 -16 -111h-14q-15 19 -36 19q-33 0 -83 -65q-60 -78 -85 -193l-26 -120q-44 -8 -67 -15l-10 7q30 95 56.5 221.5t26.5 170.5q0 22 -17 22q-12 0 -48 -23 l-32 -21z" />
<glyph unicode="s" horiz-adv-x="389" d="M9 16q15 64 22 132h25v-84q41 -35 94 -35t85 29.5t32 79.5q0 30 -13.5 44.5t-46.5 20.5l-63 12q-97 19 -97 101q0 50 37 88q76 78 161 78q45 0 100 -27q-13 -60 -19 -113h-23v55q-12 20 -38 32.5t-57 12.5q-43 0 -72.5 -27t-29.5 -67q0 -31 17 -46t62 -23l43 -8 q56 -10 81 -33t25 -64q0 -71 -72 -127q-74 -58 -146 -58q-53 0 -107 27z" />
<glyph unicode="t" horiz-adv-x="333" d="M41 390l2 13q25 7 88 37l25 170q51 20 78 36l11 -15q-23 -70 -45 -197q53 0 110 6l-11 -50h-107l-13 -62q-43 -205 -43 -252q0 -20 13 -20q18 0 61 30l45 31l10 -18q-9 -7 -15.5 -12.5t-15.5 -12.5q-60 -48 -91 -65.5t-57 -17.5q-30 0 -30 40q0 11 13 76l56 283h-84z" />
<glyph unicode="u" horiz-adv-x="556" d="M32 388l28 20q103 74 133 74q22 0 22 -31q0 -16 -5 -43l-57 -271q-7 -36 -7 -52q0 -26 13 -26q31 0 83.5 48.5t96.5 117.5q45 71 68 189l10 51l68 17l7 -9l-84 -357q-6 -24 -6 -40q0 -17 13 -17q19 0 61 27l26 17l10 -18q-75 -56 -108 -76t-52 -20q-30 0 -30 42 q0 27 11 66l37 142q-63 -103 -142 -176.5t-126 -73.5q-15 0 -25 11.5t-10 28.5q0 28 4 48l63 297q2 10 2 18q0 20 -17 20q-13 0 -48 -23l-32 -21z" />
<glyph unicode="v" d="M21 352q19 82 38 118q18 8 32 7q96 -7 123 -7q34 0 61 12l10 -18q-73 -91 -105 -165t-32 -153q0 -49 21.5 -78t58.5 -29q66 0 125.5 100t59.5 211q0 63 -43 63q-14 0 -27 -9l-11 19l50 47q12 12 33 12q27 0 44.5 -27.5t17.5 -70.5q0 -68 -39 -157q-49 -108 -126 -179 q-66 -59 -126 -59q-48 0 -79 37t-31 95q0 75 35 144t118 159q-35 -4 -63 -4q-9 0 -27.5 1t-27.5 1q-39 0 -51 -28l-17 -42h-22z" />
<glyph unicode="w" horiz-adv-x="722" d="M21 352q19 82 38 118q18 8 32 7q96 -7 123 -7q34 0 61 12l10 -18q-74 -84 -107 -161.5t-33 -166.5q0 -44 16 -70.5t42 -26.5q46 0 108 116q39 72 55 156l29 149l74 22l7 -8l-52 -184q-21 -75 -21 -156q0 -41 14 -68t36 -27q41 0 84 47t70.5 120t27.5 144q0 63 -43 63 q-14 0 -27 -9l-11 19l50 47q12 12 33 12q27 0 44.5 -27.5t17.5 -70.5q0 -68 -39 -157q-47 -103 -117 -170.5t-131 -67.5q-34 0 -54 29t-20 77q0 33 12 92q-56 -108 -99 -153t-91 -45q-40 0 -64 37.5t-24 99.5q0 64 28.5 123.5t95.5 138.5q3 4 9.5 11t11.5 13t9 12 q-33 -4 -59 -4q-9 0 -28 1t-28 1q-39 0 -51 -28l-17 -42h-22z" />
<glyph unicode="x" d="M9 1q12 84 12 87l20 3l11 -28q4 -9 28 -9q41 0 105 99l40 62l-11 62q-24 139 -72 139q-27 0 -69 -48l-17 10l58 83q15 21 57 21q44 0 66.5 -30.5t31.5 -104.5l6 -48l37 55q46 69 79 98.5t63 29.5q13 0 30 -10l-15 -85l-14 -4q-8 23 -33 23q-23 0 -46.5 -19.5t-58.5 -68.5 l-35 -49l18 -101q9 -51 25 -85q15 -30 38 -30t77 45l9 -19l-49 -44q-51 -46 -86 -46q-52 0 -72 124l-11 69l-76 -117q-50 -76 -103 -76q-20 0 -43 12z" />
<glyph unicode="y" d="M-8 -198q0 11 1 18l48 34l10 -4q-2 -18 -2 -22q0 -26 18 -44t44 -18q53 0 93 58.5t78 191.5l49 171q-56 -85 -112 -141.5t-84 -56.5q-19 0 -31.5 20t-11.5 51l1 40l17 243q4 67 -21 67q-10 0 -25 -12l-50 -30l-11 18l82 56q58 40 75 40q24 0 24 -63q0 -35 -4 -97 l-15 -194q-5 -61 19 -61q16 0 48 28.5t58 66.5q59 88 80 169l35 132q31 3 74 19l11 -9l-141 -440q-44 -139 -120 -224t-155 -85q-34 0 -58 23t-24 55z" />
<glyph unicode="z" horiz-adv-x="444" d="M-1 21l353 400q-45 -23 -93 -23q-32 0 -81 10q-25 5 -45 5q-18 0 -39 -5l-30 -58h-21l32 122q34 10 61 10q21 0 80 -16q78 -21 134 -21q20 0 34 14l23 23l9 -9l-6 -32l-339 -382q50 21 95 21q29 0 86 -12q48 -11 67 -11q29 0 39 25l22 60h22q-19 -82 -30 -143 q-36 -10 -50 -10q-32 0 -118 20q-68 17 -105 17q-51 0 -91 -32z" />
<glyph unicode="{" horiz-adv-x="333" d="M15 315q46 13 67 37.5t29 74.5l29 172q13 77 51.5 105.5t127.5 28.5q-48 -12 -71 -38.5t-33 -81.5l-30 -172q-10 -61 -32.5 -87t-73.5 -39q37 -11 52 -27.5t15 -46.5q0 -25 -6 -59l-28 -162q-3 -19 -3 -37q0 -37 14.5 -55t51.5 -28q-68 1 -95 13q-40 18 -40 77q0 24 5 56 l27 156q4 21 4 45q0 28 -13 42.5t-48 25.5z" />
<glyph unicode="|" horiz-adv-x="606" d="M275 -100v833h56v-833h-56z" />
<glyph unicode="}" horiz-adv-x="333" d="M14 -100q48 12 71 38.5t33 81.5l30 172q10 61 32.5 87t73.5 39q-37 10 -52 27t-15 47q0 25 6 59l28 162q3 18 3 37q0 37 -14.5 55t-51.5 28q68 -1 95 -13q40 -18 40 -78q0 -23 -5 -55l-27 -156q-4 -21 -4 -46q0 -27 13.5 -42t47.5 -25q-46 -13 -67 -37.5t-29 -74.5 l-29 -172q-13 -77 -51.5 -105.5t-127.5 -28.5z" />
<glyph unicode="~" horiz-adv-x="606" d="M51 196q37 65 69 92.5t70 27.5q39 0 128 -39q75 -33 98 -33q58 0 105 84l34 -27q-62 -113 -138 -113q-33 0 -130 41q-48 20 -63 25t-33 5q-30 0 -53 -19.5t-53 -70.5z" />
<glyph unicode="&#xa1;" horiz-adv-x="333" d="M122 -262l123 516l30 17l6 -3q-13 -93 -56 -442l-7 -71l-85 -26zM233 401q0 28 18 48.5t43 20.5q20 0 32 -12.5t12 -34.5q0 -29 -17.5 -49.5t-42.5 -20.5q-19 0 -32 14t-13 34z" />
<glyph unicode="&#xa2;" d="M56 140q0 82 32.5 160t81.5 113q84 59 146 67l27 71h33l-27 -71q37 0 69 -22q-18 -82 -21 -128h-23v64q0 17 -44 33l-146 -382q15 -5 26 -5q69 0 169 75l7 -20l-60 -49q-69 -55 -163 -57l-34 -85h-32l35 94q-23 7 -34.5 16.5t-22.5 30.5q-19 38 -19 95zM130 149 q0 -53 27 -85l140 368q-6 1 -14 1q-28 0 -54 -14t-40 -37q-20 -31 -39.5 -109t-19.5 -124z" />
<glyph unicode="&#xa3;" d="M2 27q57 30 82 87t42 185l3 23h-95l7 35h94q18 106 41.5 166t66.5 109q67 76 142 76q49 0 94 -28q-18 -53 -19 -122h-23v54q0 20 -26.5 35.5t-61.5 15.5q-76 0 -94 -94q-7 -33 -20.5 -95t-15.5 -74l-10 -43h142l-7 -35h-143q-29 -114 -52.5 -168.5t-57.5 -89.5 q52 15 85 15q20 0 60 -5l59 -8q26 -4 44 -4h30q30 0 41.5 6.5t20.5 30.5l22 60h24l-36 -158q-24 -15 -59 -15q-27 0 -157 26l-12 2q-67 12 -97 12q-21 0 -29 -2.5t-23 -13.5q-19 -15 -41 -28q-21 9 -21 45z" />
<glyph unicode="&#xa4;" d="M14 149l54 54q-51 66 -51 143q0 83 53 143l-56 56l31 32l57 -56q64 54 148 54q83 0 148 -54l57 56l31 -32l-56 -56q53 -62 53 -143q0 -75 -51 -143l54 -54l-31 -31l-55 53q-70 -56 -150 -56q-81 0 -150 56l-55 -53zM69 345q0 -74 52.5 -126t128.5 -52t128.5 52t52.5 127 t-52.5 126t-130.5 51q-75 0 -127 -52t-52 -126z" />
<glyph unicode="&#xa5;" d="M35 618v24q34 29 61 57q50 2 88 -85.5t77 -294.5q71 179 130 266t121 106l-4 -70q-38 -9 -67.5 -41t-78.5 -113l-6 -10q-20 -33 -35 -70l-19 -43h96l-6 -34h-102q-10 -23 -15 -73h111l-6 -34h-110l-16 -110q-3 -24 -3 -35q0 -16 7 -22t24 -8l41 -3l-2 -28h-23l-82 3 l-72 -2l-46 -1l3 28l41 3q26 1 32 15q5 7 18 82l13 78h-115l6 34h114q2 11 2 22q0 19 -7 51h-99l6 34h84l-9 42q-29 132 -55.5 188t-60.5 56q-12 0 -36 -12z" />
<glyph unicode="&#xa6;" horiz-adv-x="606" d="M275 -100v333h56v-333h-56zM275 400v333h56v-333h-56z" />
<glyph unicode="&#xa7;" d="M14 -168l33 141l24 -2l-6 -86q51 -59 126 -59q59 0 99 37.5t40 92.5q0 37 -20 62t-74 54l-51 28q-76 42 -106 76t-30 79q0 46 23.5 79.5t85.5 78.5q-41 45 -41 84q0 76 74 147q63 62 145 62q71 0 127 -40l-31 -129h-25l5 80q-44 44 -108 44q-55 0 -92.5 -34t-37.5 -84 q0 -53 46 -82l123 -76q60 -37 77 -58q26 -32 26 -75q0 -91 -107 -157q29 -26 40 -47t11 -51q0 -81 -78 -152q-69 -65 -153 -65q-83 0 -145 52zM112 288q0 -60 90 -111l116 -66q36 29 51 53t15 53q0 33 -20 58t-68 54l-119 70q-65 -54 -65 -111z" />
<glyph unicode="&#xa8;" horiz-adv-x="333" d="M145 590q0 26 18 46.5t40 20.5q16 0 26 -11.5t10 -29.5q0 -29 -15.5 -48t-38.5 -19q-19 0 -29.5 11t-10.5 30zM305 590q0 26 18 46.5t40 20.5q16 0 26 -11.5t10 -29.5q0 -29 -15.5 -48t-38.5 -19q-19 0 -29.5 11t-10.5 30z" />
<glyph unicode="&#xa9;" horiz-adv-x="747" d="M31 324q0 143 100.5 243.5t242.5 100.5t243 -101t101 -243t-100.5 -242.5t-243.5 -100.5q-142 0 -242.5 100.5t-100.5 242.5zM67 324q0 -128 89.5 -217.5t217.5 -89.5t218 90t90 217q0 128 -90 218t-218 90q-127 0 -217 -90t-90 -218zM186 291q-2 128 106 195 q67 41 147 41q53 0 122 -24q-11 -34 -16 -86h-23l-1 48q-45 26 -106 26q-79 0 -121 -52t-41 -134q2 -72 38.5 -110t105.5 -38q35 0 63.5 9t71.5 33l10 -6l-7 -24q-77 -48 -159 -48q-90 0 -139.5 44t-50.5 126z" />
<glyph unicode="&#xaa;" horiz-adv-x="333" d="M38 350l6 34h263l-6 -34h-263zM60 454q0 45 21.5 110.5t43.5 85.5q54 49 110 49q24 0 56 -11l21 11l7 -5l-59 -223l-1 -8q0 -17 12 -17q5 0 19.5 8.5t22.5 16.5l4 2l4 -12q-76 -57 -94 -57q-16 0 -16 22q0 9 4 31l16 78q-36 -49 -58.5 -72.5t-49.5 -40.5q-29 -18 -41 -18 q-9 0 -15.5 14.5t-6.5 35.5zM107 468q0 -21 11 -21q17 0 51 32t52 64q22 37 44 116q-37 11 -57 11q-29 0 -41.5 -11t-25.5 -46l-17 -47q-17 -46 -17 -98z" />
<glyph unicode="&#xab;" d="M57 251v16l194 173l19 -16l-137 -168l95 -171l-20 -15zM224 251v16l194 173l19 -16l-137 -168l95 -171l-20 -15z" />
<glyph unicode="&#xac;" horiz-adv-x="606" d="M40 309v56h526v-201h-56v144z" />
<glyph unicode="&#xad;" horiz-adv-x="333" d="M19 223l19 58h266l-18 -58h-267z" />
<glyph unicode="&#xae;" horiz-adv-x="747" d="M31 324q0 143 100.5 243.5t242.5 100.5t243 -101t101 -243t-100.5 -242.5t-243.5 -100.5q-142 0 -242.5 100.5t-100.5 242.5zM67 324q0 -128 89.5 -217.5t217.5 -89.5t218 90t90 217q0 128 -90 218t-218 90q-127 0 -217 -90t-90 -218zM181 128l3 23l26 2q7 0 11.5 4 t7.5 13.5t4.5 14.5t3.5 18l42 240q5 31 4 41q0 12 -16 12l-34 1l2 23q31 -2 93 -2q16 0 46 1t45 1q48 0 80.5 -19.5t33.5 -57.5q0 -54 -54 -89q-29 -19 -69 -26l112 -149q20 -25 44 -28l1 -23q-20 3 -38 3q-25 0 -49 -3l-147 202l3 16h29q40 0 71 26t30 61q-1 28 -22.5 44 t-52.5 16q-14 0 -40 -4q-2 -9 -8 -35l-47 -268q-2 -14 -2 -19q0 -12 17 -14l30 -2l-2 -23q-39 3 -77 3q-40 0 -81 -3z" />
<glyph unicode="&#xaf;" horiz-adv-x="333" d="M117 578l11 51h301l-11 -51h-301z" />
<glyph unicode="&#xb0;" horiz-adv-x="400" d="M90 540q0 62 44 105.5t106 43.5t106 -44.5t44 -107.5q0 -60 -44.5 -104t-105.5 -44q-62 0 -106 44t-44 107zM130 540q0 -46 32 -78.5t78 -32.5q45 0 77.5 32.5t32.5 76.5q0 46 -32.5 78.5t-78.5 32.5q-45 0 -77 -32t-32 -77z" />
<glyph unicode="&#xb1;" horiz-adv-x="606" d="M40 0v56h526v-56h-526zM40 278v56h235v235h56v-235h235v-56h-235v-172h-56v172h-235z" />
<glyph unicode="&#xb2;" horiz-adv-x="300" d="M13 278v21q124 122 168.5 183.5t44.5 110.5q0 59 -64 59q-30 0 -48.5 -13t-40.5 -48l-18 10l39 72q38 26 86 26q50 0 80 -26.5t30 -71.5q0 -64 -58 -122l-160 -158h136q35 0 74 9l4 -11l-11 -41l-62 1q-10 0 -36 0.5t-32 0.5q-7 0 -33.5 -0.5t-36.5 -0.5z" />
<glyph unicode="&#xb3;" horiz-adv-x="300" d="M28 299l18 87l22 -3q-3 -14 -3 -26q0 -28 20 -43t57 -15q41 0 70.5 35t29.5 83q0 35 -21.5 54.5t-61.5 19.5q-20 0 -49 -10l-4 13l11 30h16l14 -1q39 -3 66.5 23.5t27.5 63.5q0 20 -18 34t-45 14q-37 0 -64 -34l-13 -17l-15 10l38 63q45 19 76 19q44 0 71.5 -22t27.5 -56 q0 -33 -22 -57.5t-74 -48.5q55 -11 78 -32.5t23 -61.5q0 -61 -53 -104.5t-128 -43.5q-54 0 -95 26z" />
<glyph unicode="&#xb4;" horiz-adv-x="333" d="M158 518l153 151q18 18 33 18t26.5 -9.5t11.5 -21.5q0 -20 -28 -37l-162 -101h-34z" />
<glyph unicode="&#xb5;" horiz-adv-x="556" d="M13 -218l124 592q0 2 1 9t2 9q0 8 -5 14t-12 6q-12 0 -49 -23l-32 -21l-7 20l29 20q103 74 133 74q22 0 22 -32q0 -17 -5 -42l-60 -271q-7 -35 -7 -52q0 -26 13 -26q30 0 81.5 47t96.5 115q48 74 73 193l10 51l68 17l7 -9l-87 -357q-6 -36 -6 -40q0 -17 13 -17 q21 0 61 27l26 17l10 -18q-38 -28 -63.5 -45.5t-44.5 -28.5t-31 -15.5t-22 -4.5q-30 0 -30 40q0 20 14 76l36 132q-33 -56 -90 -121q-51 -57 -97 -93t-68 -36q-3 0 -23 4l-9 -175q-2 -20 -33 -32l-30 -12z" />
<glyph unicode="&#xb6;" d="M33 516q0 86 45 131t131 45l201 -3q71 -4 129 -0.5t72 3.5l-5 -30h-23q-39 0 -53.5 -13.5t-22.5 -56.5l-125 -729q-5 -32 5.5 -44.5t44.5 -12.5h43l-5 -30q-21 0 -66.5 2t-133.5 1q-94 -1 -137 -2t-51 -1l5 30h30q31 0 43.5 14.5t19.5 60.5l63 369q-63 9 -110 48 q-100 83 -100 218zM143 493q0 -176 106 -205l63 364q-42 5 -56 5q-58 0 -85.5 -40t-27.5 -124zM236 -189h68l147 846h-68z" />
<glyph unicode="&#xb7;" horiz-adv-x="250" d="M67 250q0 24 17 41t41 17t41 -17t17 -41t-17 -41t-41 -17t-41 17t-17 41z" />
<glyph unicode="&#xb8;" horiz-adv-x="333" d="M-9 -196l17 29q45 -14 69 -14q23 0 38 12.5t15 32.5q0 17 -13 27.5t-34 10.5q-12 0 -33 -6l-9 8l62 101h38l-45 -69q22 2 24 2q38 0 60 -19t22 -51q0 -38 -33.5 -61t-89.5 -23q-35 0 -88 20z" />
<glyph unicode="&#xb9;" horiz-adv-x="300" d="M61 278l5 24l49 6q15 1 21 9.5t10 31.5l54 300q-23 -11 -30 -12q-7 -3 -14.5 -6t-11.5 -5t-5 -2l-54 -24l-5 3l7 43q59 12 107 29l69 24l10 -6l-4 -14q-6 -22 -10 -46l-52 -280q-2 -10 -2 -20q0 -15 8 -21t30 -7l42 -3l-4 -24l-52 1q-5 0 -29.5 0.5t-28.5 0.5t-28.5 -0.5 t-29.5 -0.5z" />
<glyph unicode="&#xba;" horiz-adv-x="333" d="M36 350l6 34h244l-6 -34h-244zM66 500q0 83 49.5 141t119.5 58q41 0 64 -23.5t23 -66.5q0 -84 -51 -144.5t-122 -60.5q-40 0 -61.5 25t-21.5 71zM115 506q0 -79 60 -79q47 0 72.5 54.5t25.5 119.5q0 75 -61 75q-43 0 -70 -47.5t-27 -122.5z" />
<glyph unicode="&#xbb;" d="M63 86l137 168l-95 171l20 15l151 -181v-16l-194 -173zM230 86l137 168l-95 171l20 15l151 -181v-16l-194 -173z" />
<glyph unicode="&#xbc;" horiz-adv-x="750" d="M31 278l5 24l49 6q15 1 21 9.5t10 31.5l54 300q-23 -11 -30 -12q-7 -3 -14.5 -6t-11.5 -5t-5 -2l-54 -24l-5 3l7 43q59 12 107 29l69 24l10 -6l-4 -14q-6 -22 -10 -46l-52 -280q-2 -10 -2 -20q0 -15 8 -21t30 -7l42 -3l-4 -24l-52 1q-5 0 -29.5 0.5t-28.5 0.5t-28.5 -0.5 t-29.5 -0.5zM154 0l451 699h56l-451 -699h-56zM410 113v25l219 276l45 9l9 -7l-47 -266h76l3 -8l-11 -32q-21 3 -34 3h-43l-7 -28q-4 -16 -4 -35q0 -24 21 -25l54 -3l-4 -24h-22q-58 2 -85 2q-26 0 -86 -2h-22l3 24l51 3q16 1 23.5 9t12.5 28l13 51h-165zM447 150h137 l48 236z" />
<glyph unicode="&#xbd;" horiz-adv-x="750" d="M31 278l5 24l49 6q15 1 21 9.5t10 31.5l54 300q-23 -11 -30 -12q-7 -3 -14.5 -6t-11.5 -5t-5 -2l-54 -24l-5 3l7 43q59 12 107 29l69 24l10 -6l-4 -14q-6 -22 -10 -46l-52 -280q-2 -10 -2 -20q0 -15 8 -21t30 -7l42 -3l-4 -24l-52 1q-5 0 -29.5 0.5t-28.5 0.5t-28.5 -0.5 t-29.5 -0.5zM130 0l451 699h56l-451 -699h-56zM444 -2v21q124 122 168.5 183.5t44.5 110.5q0 59 -64 59q-30 0 -48.5 -13t-40.5 -48l-18 10l39 72q38 26 86 26q50 0 80 -26.5t30 -71.5q0 -64 -58 -122l-160 -158h136q35 0 74 9l4 -11l-11 -41h-26q-72 2 -104 2 q-34 0 -106 -2h-26z" />
<glyph unicode="&#xbe;" horiz-adv-x="750" d="M35 299l18 87l22 -3q-3 -14 -3 -26q0 -28 20 -43t57 -15q41 0 70.5 35t29.5 83q0 35 -21.5 54.5t-61.5 19.5q-20 0 -49 -10l-4 13l11 30h16l14 -1q39 -3 66.5 23.5t27.5 63.5q0 20 -18 34t-45 14q-37 0 -64 -34l-13 -17l-15 10l38 63q45 19 76 19q44 0 71.5 -22t27.5 -56 q0 -33 -22 -57.5t-74 -48.5q55 -11 78 -32.5t23 -61.5q0 -61 -53 -104.5t-128 -43.5q-54 0 -95 26zM154 0l451 699h56l-451 -699h-56zM410 113v25l219 276l45 9l9 -7l-47 -266h76l3 -8l-11 -32q-21 3 -34 3h-43l-7 -28q-4 -16 -4 -35q0 -24 21 -25l54 -3l-4 -24h-22 q-58 2 -85 2q-26 0 -86 -2h-22l3 24l51 3q16 1 23.5 9t12.5 28l13 51h-165zM447 150h137l48 236z" />
<glyph unicode="&#xbf;" d="M154 -110q0 74 74 145l104 100q50 47 50 77q0 23 -27 51l25 6q38 -24 38 -63q0 -49 -55 -111l-70 -79q-57 -64 -57 -116q0 -37 28 -61t71 -24q31 0 50 11.5t39 40.5l20 30l22 -6l-40 -98q-60 -37 -115 -37q-70 0 -113.5 37t-43.5 97zM362 401q0 28 18 48.5t43 20.5 q20 0 32 -12.5t12 -34.5q0 -29 -17.5 -49.5t-42.5 -20.5q-19 0 -32 14t-13 34z" />
<glyph unicode="&#xc0;" horiz-adv-x="722" d="M-19 -3v30l20 5q26 6 44 22.5t44 57.5l373 593h46l87 -625q4 -34 12.5 -41t43.5 -11l26 -3v-28q-60 3 -122 3q-61 0 -122 -3v28l44 3q43 3 43 27q0 4 -2 22l-27 200h-246l-102 -175q-26 -44 -26 -55q0 -7 9 -12.5t22 -6.5l52 -3v-28q-52 3 -107 3q-57 0 -112 -3zM270 313 h216l-37 288zM401 860q3 10 18 17.5t32 7.5q18 0 29 -14l124 -123h-37l-146 82q-25 15 -20 30z" />
<glyph unicode="&#xc1;" horiz-adv-x="722" d="M-19 -3v30l20 5q26 6 44 22.5t44 57.5l373 593h46l87 -625q4 -34 12.5 -41t43.5 -11l26 -3v-28q-60 3 -122 3q-61 0 -122 -3v28l44 3q43 3 43 27q0 4 -2 22l-27 200h-246l-102 -175q-26 -44 -26 -55q0 -7 9 -12.5t22 -6.5l52 -3v-28q-52 3 -107 3q-57 0 -112 -3zM270 313 h216l-37 288zM382 748l167 123q17 14 34 14q16 0 29 -7.5t13 -17.5q-1 -15 -32 -30l-174 -82h-37z" />
<glyph unicode="&#xc2;" horiz-adv-x="722" d="M-19 -3v30l20 5q26 6 44 22.5t44 57.5l373 593h46l87 -625q4 -34 12.5 -41t43.5 -11l26 -3v-28q-60 3 -122 3q-61 0 -122 -3v28l44 3q43 3 43 27q0 4 -2 22l-27 200h-246l-102 -175q-26 -44 -26 -55q0 -7 9 -12.5t22 -6.5l52 -3v-28q-52 3 -107 3q-57 0 -112 -3zM270 313 h216l-37 288zM317 749l170 137h53l95 -137h-40l-87 85l-149 -85h-42z" />
<glyph unicode="&#xc3;" horiz-adv-x="722" d="M-19 -3v30l20 5q26 6 44 22.5t44 57.5l373 593h46l87 -625q4 -34 12.5 -41t43.5 -11l26 -3v-28q-60 3 -122 3q-61 0 -122 -3v28l44 3q43 3 43 27q0 4 -2 22l-27 200h-246l-102 -175q-26 -44 -26 -55q0 -7 9 -12.5t22 -6.5l52 -3v-28q-52 3 -107 3q-57 0 -112 -3zM270 313 h216l-37 288zM342 766q15 55 38 79t60 24q27 0 63 -14l60 -24q12 -5 27 -5t25.5 9t25.5 34h28q-9 -49 -34.5 -76t-62.5 -27q-23 0 -64 16q-46 18 -47 19q-22 9 -38 9q-19 0 -30 -9.5t-22 -34.5h-29z" />
<glyph unicode="&#xc4;" horiz-adv-x="722" d="M-19 -3v30l20 5q26 6 44 22.5t44 57.5l373 593h46l87 -625q4 -34 12.5 -41t43.5 -11l26 -3v-28q-60 3 -122 3q-61 0 -122 -3v28l44 3q43 3 43 27q0 4 -2 22l-27 200h-246l-102 -175q-26 -44 -26 -55q0 -7 9 -12.5t22 -6.5l52 -3v-28q-52 3 -107 3q-57 0 -112 -3zM270 313 h216l-37 288zM377 804q0 26 18 46.5t40 20.5q16 0 26 -11.5t10 -29.5q0 -29 -15.5 -48t-38.5 -19q-19 0 -29.5 11t-10.5 30zM537 804q0 26 18 46.5t40 20.5q16 0 26 -11.5t10 -29.5q0 -29 -15.5 -48t-38.5 -19q-19 0 -29.5 11t-10.5 30z" />
<glyph unicode="&#xc5;" horiz-adv-x="722" d="M-19 -3v30l20 5q26 6 44 22.5t44 57.5l373 593h46l87 -625q4 -34 12.5 -41t43.5 -11l26 -3v-28q-60 3 -122 3q-61 0 -122 -3v28l44 3q43 3 43 27q0 4 -2 22l-27 200h-246l-102 -175q-26 -44 -26 -55q0 -7 9 -12.5t22 -6.5l52 -3v-28q-52 3 -107 3q-57 0 -112 -3zM270 313 h216l-37 288zM409 837q0 42 29.5 71t71.5 29q41 0 70 -29.5t29 -70.5q0 -42 -29.5 -71t-70.5 -29q-42 0 -71 29t-29 71zM447 837q0 -29 17 -46.5t45 -17.5t45 17.5t17 46.5t-17 46.5t-45 17.5t-45 -17.5t-17 -46.5z" />
<glyph unicode="&#xc6;" horiz-adv-x="941" d="M-4 -3v30l34 5q18 3 36 30l368 545q13 20 13 36q0 7 -11.5 13t-25.5 6h-66v30q122 -3 243 -3q41 0 123 1.5t123 1.5q37 0 69 -3q-17 -57 -21 -152h-24l-8 89q-1 11 -27.5 17.5t-66.5 6.5l-76 -2l-47 -2q-5 -10 -9 -32l-42 -238h17l219 6l4 -7l-19 -45q-9 0 -16 1t-14 1.5 t-32.5 1t-69.5 0.5h-97l-43 -253q-2 -12 -2 -35q86 -7 112 -7q111 0 147 9q16 4 24.5 15t16.5 38l16 60h27l-5 -26q-13 -73 -16 -99l-4 -36q-14 0 -24 -1t-26.5 -1.5t-53.5 -0.5q-35 0 -105 1.5t-105 1.5q-74 0 -148 -3l5 26q32 5 43.5 13.5t15.5 29.5l38 213h-222 l-108 -181q-20 -36 -20 -44q0 -27 61 -27h24v-30q-67 3 -107 3zM290 319h202l54 336h-14q-14 0 -37 -35z" />
<glyph unicode="&#xc7;" horiz-adv-x="667" d="M45 284q0 230 177 350q107 72 234 72q86 0 195 -41q-20 -66 -27 -146h-27v84q-78 50 -179 50q-120 0 -190 -72q-95 -97 -95 -272q0 -134 62.5 -204t180.5 -70q59 0 106.5 16t117.5 59l10 -7l-10 -36q-68 -46 -126.5 -65.5t-130.5 -19.5h-8l-32 -46q16 2 23 2 q39 0 61 -18.5t22 -51.5q0 -38 -33.5 -61t-89.5 -23q-35 0 -88 20l17 29q43 -14 69 -14q23 0 38 12.5t15 32.5q0 17 -13 27.5t-34 10.5q-10 0 -33 -6l-9 8l51 80l-3 1q-122 12 -186.5 89t-64.5 210z" />
<glyph unicode="&#xc8;" horiz-adv-x="611" d="M30 -3l5 26q33 5 45.5 11.5t14.5 20.5l87 504q9 48 9 77q0 25 -35 26l-54 2l3 28q79 -3 160 -3q40 0 118.5 1.5t117.5 1.5q36 0 69 -3q-17 -57 -21 -152h-24l-8 89q-2 24 -107 24q-41 -1 -130 -4q-5 -10 -9 -32l-42 -238h37l219 6l4 -7l-19 -45q-9 0 -16 1t-14 1.5 t-32.5 1t-69.5 0.5h-117l-43 -253q-2 -12 -2 -35q73 -7 131 -7q112 0 150 10q16 4 24 15t15 37l16 60h27q-16 -80 -21 -125l-4 -36q-5 0 -29.5 -1.5t-75.5 -1.5q-37 0 -112.5 1.5t-112.5 1.5q-77 0 -154 -3zM302 860q3 10 18.5 17.5t31.5 7.5q18 0 29 -14l124 -123h-37 l-146 82q-25 15 -20 30z" />
<glyph unicode="&#xc9;" horiz-adv-x="611" d="M30 -3l5 26q33 5 45.5 11.5t14.5 20.5l87 504q9 48 9 77q0 25 -35 26l-54 2l3 28q79 -3 160 -3q40 0 118.5 1.5t117.5 1.5q36 0 69 -3q-17 -57 -21 -152h-24l-8 89q-2 24 -107 24q-41 -1 -130 -4q-5 -10 -9 -32l-42 -238h37l219 6l4 -7l-19 -45q-9 0 -16 1t-14 1.5 t-32.5 1t-69.5 0.5h-117l-43 -253q-2 -12 -2 -35q73 -7 131 -7q112 0 150 10q16 4 24 15t15 37l16 60h27q-16 -80 -21 -125l-4 -36q-5 0 -29.5 -1.5t-75.5 -1.5q-37 0 -112.5 1.5t-112.5 1.5q-77 0 -154 -3zM283 748l167 123q17 14 34 14q16 0 29 -7.5t13 -17.5 q-1 -15 -32 -30l-174 -82h-37z" />
<glyph unicode="&#xca;" horiz-adv-x="611" d="M30 -3l5 26q33 5 45.5 11.5t14.5 20.5l87 504q9 48 9 77q0 25 -35 26l-54 2l3 28q79 -3 160 -3q40 0 118.5 1.5t117.5 1.5q36 0 69 -3q-17 -57 -21 -152h-24l-8 89q-2 24 -107 24q-41 -1 -130 -4q-5 -10 -9 -32l-42 -238h37l219 6l4 -7l-19 -45q-9 0 -16 1t-14 1.5 t-32.5 1t-69.5 0.5h-117l-43 -253q-2 -12 -2 -35q73 -7 131 -7q112 0 150 10q16 4 24 15t15 37l16 60h27q-16 -80 -21 -125l-4 -36q-5 0 -29.5 -1.5t-75.5 -1.5q-37 0 -112.5 1.5t-112.5 1.5q-77 0 -154 -3zM218 749l170 137h53l95 -137h-40l-87 85l-149 -85h-42z" />
<glyph unicode="&#xcb;" horiz-adv-x="611" d="M30 -3l5 26q33 5 45.5 11.5t14.5 20.5l87 504q9 48 9 77q0 25 -35 26l-54 2l3 28q79 -3 160 -3q40 0 118.5 1.5t117.5 1.5q36 0 69 -3q-17 -57 -21 -152h-24l-8 89q-2 24 -107 24q-41 -1 -130 -4q-5 -10 -9 -32l-42 -238h37l219 6l4 -7l-19 -45q-9 0 -16 1t-14 1.5 t-32.5 1t-69.5 0.5h-117l-43 -253q-2 -12 -2 -35q73 -7 131 -7q112 0 150 10q16 4 24 15t15 37l16 60h27q-16 -80 -21 -125l-4 -36q-5 0 -29.5 -1.5t-75.5 -1.5q-37 0 -112.5 1.5t-112.5 1.5q-77 0 -154 -3zM278 804q0 26 18 46.5t40 20.5q16 0 26 -11.5t10 -29.5 q0 -29 -15.5 -48t-38.5 -19q-19 0 -29.5 11t-10.5 30zM438 804q0 26 18 46.5t40 20.5q16 0 26 -11.5t10 -29.5q0 -29 -15.5 -48t-38.5 -19q-19 0 -29.5 11t-10.5 30z" />
<glyph unicode="&#xcc;" horiz-adv-x="333" d="M7 -3l3 28l36 3q30 2 38.5 16t19.5 81l72 434q9 49 9 77q0 25 -35 26l-47 2l3 28q67 -3 136 -3q56 0 112 3l-3 -28l-35 -3q-29 -2 -37.5 -10t-13.5 -38l-89 -535q-2 -10 -2 -21q0 -15 8 -21t28 -8l52 -3l-3 -28q-63 3 -126 3t-126 -3zM157 860q3 10 18 17.5t32 7.5 q18 0 29 -14l124 -123h-37l-146 82q-25 15 -20 30z" />
<glyph unicode="&#xcd;" horiz-adv-x="333" d="M7 -3l3 28l36 3q30 2 38.5 16t19.5 81l72 434q9 49 9 77q0 25 -35 26l-47 2l3 28q67 -3 136 -3q56 0 112 3l-3 -28l-35 -3q-29 -2 -37.5 -10t-13.5 -38l-89 -535q-2 -10 -2 -21q0 -15 8 -21t28 -8l52 -3l-3 -28q-63 3 -126 3t-126 -3zM138 748l167 123q17 14 34 14 q16 0 29 -7.5t13 -17.5q-1 -15 -32 -30l-174 -82h-37z" />
<glyph unicode="&#xce;" horiz-adv-x="333" d="M7 -3l3 28l36 3q30 2 38.5 16t19.5 81l72 434q9 49 9 77q0 25 -35 26l-47 2l3 28q67 -3 136 -3q56 0 112 3l-3 -28l-35 -3q-29 -2 -37.5 -10t-13.5 -38l-89 -535q-2 -10 -2 -21q0 -15 8 -21t28 -8l52 -3l-3 -28q-63 3 -126 3t-126 -3zM73 749l170 137h53l95 -137h-40 l-87 85l-149 -85h-42z" />
<glyph unicode="&#xcf;" horiz-adv-x="333" d="M7 -3l3 28l36 3q30 2 38.5 16t19.5 81l72 434q9 49 9 77q0 25 -35 26l-47 2l3 28q67 -3 136 -3q56 0 112 3l-3 -28l-35 -3q-29 -2 -37.5 -10t-13.5 -38l-89 -535q-2 -10 -2 -21q0 -15 8 -21t28 -8l52 -3l-3 -28q-63 3 -126 3t-126 -3zM133 804q0 26 18 46.5t40 20.5 q16 0 26 -11.5t10 -29.5q0 -29 -15.5 -48t-38.5 -19q-19 0 -29.5 11t-10.5 30zM293 804q0 26 18 46.5t40 20.5q16 0 26 -11.5t10 -29.5q0 -29 -15.5 -48t-38.5 -19q-19 0 -29.5 11t-10.5 30z" />
<glyph unicode="&#xd0;" horiz-adv-x="778" d="M19 346l6 32h117l31 181q9 56 9 76q0 26 -35 27l-53 2l3 28l123 -3l204 3q156 0 226 -50q91 -64 91 -211q0 -125 -67.5 -231.5t-184.5 -165.5q-71 -37 -173 -37q-4 0 -19.5 0.5t-26.5 0.5l-94 2h-55l-93 -3l5 26q27 7 39 13.5t14 18.5l50 291h-117zM168 56 q94 -15 161 -15q133 0 214 83q50 52 78 128t28 163q0 124 -64 182t-201 58q-10 0 -56.5 -2.5t-59.5 -2.5l-46 -272h187l-6 -32h-187l-44 -253q-4 -24 -4 -37z" />
<glyph unicode="&#xd1;" horiz-adv-x="778" d="M2 -3l5 28l31 3q27 2 36 14.5t18 59.5l88 474q5 15 5 30t-30 39q-19 15 -50 17l-35 2l5 28q41 -3 81 -3t81 3l345 -589l80 489q5 33 5 46q0 23 -36 24l-47 2l5 28q53 -3 105 -3q54 0 110 3l-5 -28l-37 -2q-20 -1 -28.5 -8t-15 -29.5t-16.5 -82.5l-94 -553h-50l-338 577 l-80 -464q-3 -16 -3 -30q0 -25 9.5 -33.5t39.5 -10.5l42 -3l-5 -28q-54 3 -110 3q-55 0 -111 -3zM335 766q15 55 38 79t60 24q27 0 63 -14l60 -24q12 -5 27 -5t25.5 9t25.5 34h28q-9 -49 -34.5 -76t-62.5 -27q-23 0 -64 16q-46 18 -47 19q-22 9 -38 9q-19 0 -30 -9.5 t-22 -34.5h-29z" />
<glyph unicode="&#xd2;" horiz-adv-x="778" d="M53 272q0 188 116.5 311t294.5 123q135 0 209.5 -73.5t74.5 -207.5q0 -119 -55 -222t-149 -161q-95 -60 -221 -60q-132 0 -201 74t-69 216zM141 277q0 -125 55.5 -189t163.5 -64q118 0 192 76q51 53 79.5 134t28.5 175q0 166 -97 223q-53 32 -130 32q-113 0 -183 -71 q-52 -52 -80.5 -135t-28.5 -181zM380 860q3 10 18.5 17.5t31.5 7.5q18 0 29 -14l124 -123h-37l-146 82q-25 15 -20 30z" />
<glyph unicode="&#xd3;" horiz-adv-x="778" d="M53 272q0 188 116.5 311t294.5 123q135 0 209.5 -73.5t74.5 -207.5q0 -119 -55 -222t-149 -161q-95 -60 -221 -60q-132 0 -201 74t-69 216zM141 277q0 -125 55.5 -189t163.5 -64q118 0 192 76q51 53 79.5 134t28.5 175q0 166 -97 223q-53 32 -130 32q-113 0 -183 -71 q-52 -52 -80.5 -135t-28.5 -181zM361 748l167 123q17 14 34 14q16 0 29 -7.5t13 -17.5q-1 -15 -32 -30l-174 -82h-37z" />
<glyph unicode="&#xd4;" horiz-adv-x="778" d="M53 272q0 188 116.5 311t294.5 123q135 0 209.5 -73.5t74.5 -207.5q0 -119 -55 -222t-149 -161q-95 -60 -221 -60q-132 0 -201 74t-69 216zM141 277q0 -125 55.5 -189t163.5 -64q118 0 192 76q51 53 79.5 134t28.5 175q0 166 -97 223q-53 32 -130 32q-113 0 -183 -71 q-52 -52 -80.5 -135t-28.5 -181zM296 749l170 137h53l95 -137h-40l-87 85l-149 -85h-42z" />
<glyph unicode="&#xd5;" horiz-adv-x="778" d="M53 272q0 188 116.5 311t294.5 123q135 0 209.5 -73.5t74.5 -207.5q0 -119 -55 -222t-149 -161q-95 -60 -221 -60q-132 0 -201 74t-69 216zM141 277q0 -125 55.5 -189t163.5 -64q118 0 192 76q51 53 79.5 134t28.5 175q0 166 -97 223q-53 32 -130 32q-113 0 -183 -71 q-52 -52 -80.5 -135t-28.5 -181zM321 766q15 55 38 79t60 24q27 0 63 -14l60 -24q12 -5 27 -5t25.5 9t25.5 34h28q-9 -49 -34.5 -76t-62.5 -27q-23 0 -64 16q-46 18 -47 19q-22 9 -38 9q-19 0 -30 -9.5t-22 -34.5h-29z" />
<glyph unicode="&#xd6;" horiz-adv-x="778" d="M53 272q0 188 116.5 311t294.5 123q135 0 209.5 -73.5t74.5 -207.5q0 -119 -55 -222t-149 -161q-95 -60 -221 -60q-132 0 -201 74t-69 216zM141 277q0 -125 55.5 -189t163.5 -64q118 0 192 76q51 53 79.5 134t28.5 175q0 166 -97 223q-53 32 -130 32q-113 0 -183 -71 q-52 -52 -80.5 -135t-28.5 -181zM356 804q0 26 18 46.5t40 20.5q16 0 26 -11.5t10 -29.5q0 -29 -15.5 -48t-38.5 -19q-19 0 -29.5 11t-10.5 30zM516 804q0 26 18 46.5t40 20.5q16 0 26 -11.5t10 -29.5q0 -29 -15.5 -48t-38.5 -19q-19 0 -29.5 11t-10.5 30z" />
<glyph unicode="&#xd7;" horiz-adv-x="606" d="M97 84l166 166l-166 166l40 40l166 -166l166 166l40 -40l-166 -166l166 -166l-40 -40l-166 166l-166 -166z" />
<glyph unicode="&#xd8;" horiz-adv-x="778" d="M32 -15l78 83q-31 45 -44 91.5t-13 113.5q0 187 116.5 310t293.5 123q113 0 198 -63l72 78l29 -26l-74 -79q34 -42 47 -82.5t13 -101.5q0 -193 -120 -321.5t-299 -128.5q-116 0 -195 61l-74 -82zM141 275q0 -82 27 -144l434 469q-39 35 -77 49.5t-92 14.5 q-114 0 -183 -71q-52 -53 -80.5 -136t-28.5 -182zM189 97q63 -73 172 -73q117 0 191 76q108 111 108 312q0 88 -36 155z" />
<glyph unicode="&#xd9;" horiz-adv-x="778" d="M88 664l3 28q45 -3 90 -3q44 0 89 3l-88 -477q-7 -36 -7 -60q0 -54 37 -85t102 -31q129 0 242 138l71 445q3 21 -4.5 30t-29.5 10l-48 2l3 28q68 -3 137 -3q56 0 113 3l-3 -28l-36 -3q-28 -2 -37 -10.5t-14 -37.5l-85 -507q-6 -38 -6 -56t32 -21l60 -4l-5 -28 q-42 3 -85 3q-44 0 -89 -3l-5 5q19 79 27 127q-39 -45 -68.5 -68t-74.5 -46q-68 -34 -133 -34q-84 0 -131.5 43.5t-47.5 120.5q0 28 6 61l64 375q7 40 7 58q0 13 -7 17.5t-27 5.5zM371 860q3 10 18 17.5t32 7.5q18 0 29 -14l124 -123h-37l-146 82q-25 15 -20 30z" />
<glyph unicode="&#xda;" horiz-adv-x="778" d="M88 664l3 28q45 -3 90 -3q44 0 89 3l-88 -477q-7 -36 -7 -60q0 -54 37 -85t102 -31q129 0 242 138l71 445q3 21 -4.5 30t-29.5 10l-48 2l3 28q68 -3 137 -3q56 0 113 3l-3 -28l-36 -3q-28 -2 -37 -10.5t-14 -37.5l-85 -507q-6 -38 -6 -56t32 -21l60 -4l-5 -28 q-42 3 -85 3q-44 0 -89 -3l-5 5q19 79 27 127q-39 -45 -68.5 -68t-74.5 -46q-68 -34 -133 -34q-84 0 -131.5 43.5t-47.5 120.5q0 28 6 61l64 375q7 40 7 58q0 13 -7 17.5t-27 5.5zM352 748l167 123q17 14 34 14q16 0 29 -7.5t13 -17.5q-1 -15 -32 -30l-174 -82h-37z" />
<glyph unicode="&#xdb;" horiz-adv-x="778" d="M88 664l3 28q45 -3 90 -3q44 0 89 3l-88 -477q-7 -36 -7 -60q0 -54 37 -85t102 -31q129 0 242 138l71 445q3 21 -4.5 30t-29.5 10l-48 2l3 28q68 -3 137 -3q56 0 113 3l-3 -28l-36 -3q-28 -2 -37 -10.5t-14 -37.5l-85 -507q-6 -38 -6 -56t32 -21l60 -4l-5 -28 q-42 3 -85 3q-44 0 -89 -3l-5 5q19 79 27 127q-39 -45 -68.5 -68t-74.5 -46q-68 -34 -133 -34q-84 0 -131.5 43.5t-47.5 120.5q0 28 6 61l64 375q7 40 7 58q0 13 -7 17.5t-27 5.5zM287 749l170 137h53l95 -137h-40l-87 85l-149 -85h-42z" />
<glyph unicode="&#xdc;" horiz-adv-x="778" d="M88 664l3 28q45 -3 90 -3q44 0 89 3l-88 -477q-7 -36 -7 -60q0 -54 37 -85t102 -31q129 0 242 138l71 445q3 21 -4.5 30t-29.5 10l-48 2l3 28q68 -3 137 -3q56 0 113 3l-3 -28l-36 -3q-28 -2 -37 -10.5t-14 -37.5l-85 -507q-6 -38 -6 -56t32 -21l60 -4l-5 -28 q-42 3 -85 3q-44 0 -89 -3l-5 5q19 79 27 127q-39 -45 -68.5 -68t-74.5 -46q-68 -34 -133 -34q-84 0 -131.5 43.5t-47.5 120.5q0 28 6 61l64 375q7 40 7 58q0 13 -7 17.5t-27 5.5zM347 804q0 26 18 46.5t40 20.5q16 0 26 -11.5t10 -29.5q0 -29 -15.5 -48t-38.5 -19 q-19 0 -29.5 11t-10.5 30zM507 804q0 26 18 46.5t40 20.5q16 0 26 -11.5t10 -29.5q0 -29 -15.5 -48t-38.5 -19q-19 0 -29.5 11t-10.5 30z" />
<glyph unicode="&#xdd;" horiz-adv-x="667" d="M52 647l79 58q69 -1 114 -83.5t101 -311.5q42 111 128 226q55 75 100 111t101 50l-6 -71q-44 -8 -80 -33.5t-79 -80.5q-55 -69 -98 -146.5t-50 -119.5l-26 -168q-2 -10 -2 -21q0 -15 8 -21t28 -8l49 -3l-3 -28q-62 3 -123 3q-70 0 -139 -3l4 28l48 3q30 2 38.5 15.5 t19.5 81.5l22 132q0 12 -22 91.5t-40 128.5q-31 84 -60 121t-64 37q-14 0 -45 -12zM301 748l167 123q17 14 34 14q16 0 29 -7.5t13 -17.5q-1 -15 -32 -30l-174 -82h-37z" />
<glyph unicode="&#xde;" horiz-adv-x="611" d="M9 -3l4 28l41 3q14 1 20 3t12.5 5.5t10 16t7 27t8.5 45.5l74 434q9 56 9 76q0 26 -35 27l-47 2l3 28l64 -2l77 -1l90 3h24l-3 -28l-42 -3q-28 -2 -37 -10.5t-14 -37.5l-13 -71q34 0 73.5 1t58.5 1q85 0 130.5 -41t45.5 -117q0 -97 -68 -165t-165 -68q-47 0 -90 21l-4 32 q40 -18 80 -18q75 0 117 45.5t42 127.5q0 50 -16.5 82.5t-50 48.5t-84.5 16q-23 0 -72 -8l-6 -24q-14 -73 -38 -213.5t-29 -169.5q-4 -24 -4 -35q0 -29 36 -30l65 -3l-3 -28l-53 1l-86 2q-113 -3 -132 -3z" />
<glyph unicode="&#xdf;" d="M-160 -272q12 34 22 83l11 2q26 -30 53 -30q23 0 45 19t34 50q19 47 38 148l68 383h-81l4 22l56 23q32 13 33 21l15 81q8 44 24.5 68.5t57.5 56.5q44 33 93.5 55.5t80.5 22.5q38 0 66 -30t28 -71t-18.5 -79.5t-67.5 -96.5q-27 -32 -36 -49t-9 -35q0 -29 39 -97l18 -31 q31 -53 31 -79q0 -59 -59 -120t-117 -61q-35 0 -78 21q16 46 21 107h20v-56q26 -28 65 -28q36 0 59.5 25.5t23.5 65.5q0 28 -14 55l-54 105q-17 34 -17 53q0 23 32 68q5 6 13.5 18.5t12.5 18.5q42 58 57.5 92.5t15.5 67.5q0 38 -24.5 63t-61.5 25t-66.5 -22.5t-43.5 -61.5 q-10 -28 -18.5 -67t-17.5 -87.5t-13 -68.5l-72 -339q-37 -173 -112 -253q-59 -62 -121 -62q-21 0 -36 4z" />
<glyph unicode="&#xe0;" horiz-adv-x="444" d="M4 66q0 60 21 140.5t54 147.5q19 37 46 62t74 48q37 18 75 18q36 0 85 -19l33 18l10 -9l-92 -379q-1 -3 -1 -10q0 -24 15 -24q19 0 62 36q3 2 13 11l7 -21q-116 -96 -146 -96q-24 0 -24 37q0 24 6 51l29 127q-78 -110 -138 -162q-61 -53 -95 -53q-14 0 -24 22.5t-10 54.5 zM76 99q0 -40 18 -40q25 0 67.5 41t83.5 104q45 70 74 210q-54 19 -85 19q-37 0 -58 -16.5t-39 -59.5q-26 -62 -43.5 -136t-17.5 -122zM205 656q5 12 19.5 21.5t29.5 9.5t27 -18l99 -151h-34l-126 101q-22 17 -15 37z" />
<glyph unicode="&#xe1;" horiz-adv-x="444" d="M4 66q0 60 21 140.5t54 147.5q19 37 46 62t74 48q37 18 75 18q36 0 85 -19l33 18l10 -9l-92 -379q-1 -3 -1 -10q0 -24 15 -24q19 0 62 36q3 2 13 11l7 -21q-116 -96 -146 -96q-24 0 -24 37q0 24 6 51l29 127q-78 -110 -138 -162q-61 -53 -95 -53q-14 0 -24 22.5t-10 54.5 zM76 99q0 -40 18 -40q25 0 67.5 41t83.5 104q45 70 74 210q-54 19 -85 19q-37 0 -58 -16.5t-39 -59.5q-26 -62 -43.5 -136t-17.5 -122zM180 518l153 151q18 18 33 18t26.5 -9.5t11.5 -21.5q0 -20 -28 -37l-162 -101h-34z" />
<glyph unicode="&#xe2;" horiz-adv-x="444" d="M4 66q0 60 21 140.5t54 147.5q19 37 46 62t74 48q37 18 75 18q36 0 85 -19l33 18l10 -9l-92 -379q-1 -3 -1 -10q0 -24 15 -24q19 0 62 36q3 2 13 11l7 -21q-116 -96 -146 -96q-24 0 -24 37q0 24 6 51l29 127q-78 -110 -138 -162q-61 -53 -95 -53q-14 0 -24 22.5t-10 54.5 zM76 99q0 -40 18 -40q25 0 67.5 41t83.5 104q45 70 74 210q-54 19 -85 19q-37 0 -58 -16.5t-39 -59.5q-26 -62 -43.5 -136t-17.5 -122zM122 519l157 169h49l88 -169h-36l-82 104l-137 -104h-39z" />
<glyph unicode="&#xe3;" horiz-adv-x="444" d="M4 66q0 60 21 140.5t54 147.5q19 37 46 62t74 48q37 18 75 18q36 0 85 -19l33 18l10 -9l-92 -379q-1 -3 -1 -10q0 -24 15 -24q19 0 62 36q3 2 13 11l7 -21q-116 -96 -146 -96q-24 0 -24 37q0 24 6 51l29 127q-78 -110 -138 -162q-61 -53 -95 -53q-14 0 -24 22.5t-10 54.5 zM76 99q0 -40 18 -40q25 0 67.5 41t83.5 104q45 70 74 210q-54 19 -85 19q-37 0 -58 -16.5t-39 -59.5q-26 -62 -43.5 -136t-17.5 -122zM132 552q15 55 38 79t60 24q27 0 63 -14l60 -24q12 -5 27 -5t25.5 9t25.5 34h28q-9 -49 -34.5 -76t-62.5 -27q-23 0 -64 16 q-46 18 -47 19q-22 9 -38 9q-19 0 -30 -9.5t-22 -34.5h-29z" />
<glyph unicode="&#xe4;" horiz-adv-x="444" d="M4 66q0 60 21 140.5t54 147.5q19 37 46 62t74 48q37 18 75 18q36 0 85 -19l33 18l10 -9l-92 -379q-1 -3 -1 -10q0 -24 15 -24q19 0 62 36q3 2 13 11l7 -21q-116 -96 -146 -96q-24 0 -24 37q0 24 6 51l29 127q-78 -110 -138 -162q-61 -53 -95 -53q-14 0 -24 22.5t-10 54.5 zM76 99q0 -40 18 -40q25 0 67.5 41t83.5 104q45 70 74 210q-54 19 -85 19q-37 0 -58 -16.5t-39 -59.5q-26 -62 -43.5 -136t-17.5 -122zM167 590q0 26 18 46.5t40 20.5q16 0 26 -11.5t10 -29.5q0 -29 -15.5 -48t-38.5 -19q-19 0 -29.5 11t-10.5 30zM327 590q0 26 18 46.5 t40 20.5q16 0 26 -11.5t10 -29.5q0 -29 -15.5 -48t-38.5 -19q-19 0 -29.5 11t-10.5 30z" />
<glyph unicode="&#xe5;" horiz-adv-x="444" d="M4 66q0 60 21 140.5t54 147.5q19 37 46 62t74 48q37 18 75 18q36 0 85 -19l33 18l10 -9l-92 -379q-1 -3 -1 -10q0 -24 15 -24q19 0 62 36q3 2 13 11l7 -21q-116 -96 -146 -96q-24 0 -24 37q0 24 6 51l29 127q-78 -110 -138 -162q-61 -53 -95 -53q-14 0 -24 22.5t-10 54.5 zM76 99q0 -40 18 -40q25 0 67.5 41t83.5 104q45 70 74 210q-54 19 -85 19q-37 0 -58 -16.5t-39 -59.5q-26 -62 -43.5 -136t-17.5 -122zM195 603q0 42 29.5 71t71.5 29q41 0 70 -29.5t29 -70.5q0 -42 -29.5 -71t-70.5 -29q-42 0 -71 29t-29 71zM233 603q0 -29 17 -46.5 t45 -17.5t45 17.5t17 46.5t-17 46.5t-45 17.5t-45 -17.5t-17 -46.5z" />
<glyph unicode="&#xe6;" horiz-adv-x="638" d="M1 92q0 160 215 160h68q6 18 6 55q0 127 -110 127q-26 0 -53 -9q-8 -7 -11 -14l-20 -58l-18 5l-6 68q5 3 12 7.5t13 8.5q36 24 59 32t56 8q53 0 84.5 -21t54.5 -73q62 51 105 72.5t83 21.5q37 0 60.5 -22t23.5 -57q0 -37 -27.5 -73t-73.5 -59q-68 -35 -173 -41 q-13 -69 -13 -98q0 -44 22.5 -70t61.5 -26q44 0 121 52l18 12l20 13l7 -22q-74 -59 -116 -80.5t-87 -21.5q-47 0 -74 21.5t-41 70.5q-53 -51 -90.5 -71.5t-80.5 -20.5q-96 0 -96 103zM74 104q0 -32 17.5 -50t49.5 -18q43 0 79 37t52 97q5 16 10 58h-38q-170 0 -170 -124z M353 255q44 5 51 6q66 12 105.5 46.5t39.5 80.5q0 52 -56 52q-59 0 -102 -67q-30 -47 -38 -118z" />
<glyph unicode="&#xe7;" horiz-adv-x="407" d="M25 136q0 80 26 151.5t69 109.5t91 61.5t82 23.5q59 0 96 -24q-13 -37 -24 -128h-23v60q0 18 -23.5 30.5t-57.5 12.5q-48 0 -78 -26q-36 -29 -59 -98.5t-23 -149.5q0 -119 85 -119q48 0 145 65l15 10l8 -20l-50 -41q-68 -57 -134 -64l-37 -54q16 2 23 2q39 0 61 -18.5 t22 -51.5q0 -38 -33.5 -61t-89.5 -23q-35 0 -88 20l17 29q43 -14 69 -14q23 0 38 12.5t15 32.5q0 17 -13 27.5t-34 10.5q-10 0 -33 -6l-9 8l54 86q-107 11 -107 146z" />
<glyph unicode="&#xe8;" horiz-adv-x="389" d="M15 112q0 52 19 127t42 112q30 48 97.5 89.5t116.5 41.5q38 0 61 -21.5t23 -56.5q0 -90 -124 -145q-47 -20 -69 -25l-82 -20q-8 -39 -8 -80q0 -46 20 -72t56 -26q56 0 137 58l24 17l8 -19q-70 -56 -116 -79.5t-89 -23.5q-54 0 -85 32.5t-31 90.5zM104 237q64 14 109 35 q39 19 63 51t24 65q0 24 -13 38t-35 14q-43 0 -76 -31q-39 -37 -63 -135zM181 656q5 12 19.5 21.5t29.5 9.5t27 -18l99 -151h-34l-126 101q-22 17 -15 37z" />
<glyph unicode="&#xe9;" horiz-adv-x="389" d="M15 112q0 52 19 127t42 112q30 48 97.5 89.5t116.5 41.5q38 0 61 -21.5t23 -56.5q0 -90 -124 -145q-47 -20 -69 -25l-82 -20q-8 -39 -8 -80q0 -46 20 -72t56 -26q56 0 137 58l24 17l8 -19q-70 -56 -116 -79.5t-89 -23.5q-54 0 -85 32.5t-31 90.5zM104 237q64 14 109 35 q39 19 63 51t24 65q0 24 -13 38t-35 14q-43 0 -76 -31q-39 -37 -63 -135zM156 518l153 151q18 18 33 18t26.5 -9.5t11.5 -21.5q0 -20 -28 -37l-162 -101h-34z" />
<glyph unicode="&#xea;" horiz-adv-x="389" d="M15 112q0 52 19 127t42 112q30 48 97.5 89.5t116.5 41.5q38 0 61 -21.5t23 -56.5q0 -90 -124 -145q-47 -20 -69 -25l-82 -20q-8 -39 -8 -80q0 -46 20 -72t56 -26q56 0 137 58l24 17l8 -19q-70 -56 -116 -79.5t-89 -23.5q-54 0 -85 32.5t-31 90.5zM98 519l157 169h49 l88 -169h-36l-82 104l-137 -104h-39zM104 237q64 14 109 35q39 19 63 51t24 65q0 24 -13 38t-35 14q-43 0 -76 -31q-39 -37 -63 -135z" />
<glyph unicode="&#xeb;" horiz-adv-x="389" d="M15 112q0 52 19 127t42 112q30 48 97.5 89.5t116.5 41.5q38 0 61 -21.5t23 -56.5q0 -90 -124 -145q-47 -20 -69 -25l-82 -20q-8 -39 -8 -80q0 -46 20 -72t56 -26q56 0 137 58l24 17l8 -19q-70 -56 -116 -79.5t-89 -23.5q-54 0 -85 32.5t-31 90.5zM104 237q64 14 109 35 q39 19 63 51t24 65q0 24 -13 38t-35 14q-43 0 -76 -31q-39 -37 -63 -135zM143 590q0 26 18 46.5t40 20.5q16 0 26 -11.5t10 -29.5q0 -29 -15.5 -48t-38.5 -19q-19 0 -29.5 11t-10.5 30zM303 590q0 26 18 46.5t40 20.5q16 0 26 -11.5t10 -29.5q0 -29 -15.5 -48t-38.5 -19 q-19 0 -29.5 11t-10.5 30z" />
<glyph unicode="&#xec;" horiz-adv-x="278" d="M34 388l28 20q104 74 134 74q25 0 25 -26q0 -10 -6 -36l-77 -304q-7 -26 -7 -40q0 -20 13 -20q16 0 61 30l26 17l10 -18q-73 -54 -107 -74t-53 -20q-30 0 -30 39q0 31 13 77l66 240q8 30 8 44q0 21 -17 21q-13 0 -48 -23l-32 -21zM127 656q5 12 19.5 21.5t29.5 9.5 t27 -18l99 -151h-34l-126 101q-22 17 -15 37z" />
<glyph unicode="&#xed;" horiz-adv-x="278" d="M34 388l28 20q104 74 134 74q25 0 25 -26q0 -10 -6 -36l-77 -304q-7 -26 -7 -40q0 -20 13 -20q16 0 61 30l26 17l10 -18q-73 -54 -107 -74t-53 -20q-30 0 -30 39q0 31 13 77l66 240q8 30 8 44q0 21 -17 21q-13 0 -48 -23l-32 -21zM102 518l153 151q18 18 33 18t26.5 -9.5 t11.5 -21.5q0 -20 -28 -37l-162 -101h-34z" />
<glyph unicode="&#xee;" horiz-adv-x="278" d="M34 388l28 20q104 74 134 74q25 0 25 -26q0 -10 -6 -36l-77 -304q-7 -26 -7 -40q0 -20 13 -20q16 0 61 30l26 17l10 -18q-73 -54 -107 -74t-53 -20q-30 0 -30 39q0 31 13 77l66 240q8 30 8 44q0 21 -17 21q-13 0 -48 -23l-32 -21zM44 519l157 169h49l88 -169h-36l-82 104 l-137 -104h-39z" />
<glyph unicode="&#xef;" horiz-adv-x="278" d="M34 388l28 20q104 74 134 74q25 0 25 -26q0 -10 -6 -36l-77 -304q-7 -26 -7 -40q0 -20 13 -20q16 0 61 30l26 17l10 -18q-73 -54 -107 -74t-53 -20q-30 0 -30 39q0 31 13 77l66 240q8 30 8 44q0 21 -17 21q-13 0 -48 -23l-32 -21zM89 590q0 26 18 46.5t40 20.5 q16 0 26 -11.5t10 -29.5q0 -29 -15.5 -48t-38.5 -19q-19 0 -29.5 11t-10.5 30zM249 590q0 26 18 46.5t40 20.5q16 0 26 -11.5t10 -29.5q0 -29 -15.5 -48t-38.5 -19q-19 0 -29.5 11t-10.5 30z" />
<glyph unicode="&#xf0;" horiz-adv-x="444" d="M17 149q0 77 27 148.5t76 121.5q61 63 147 63q34 0 69 -20q-2 60 -33 120l-135 -66l-12 29l129 65q-45 60 -105 78l20 45q85 -44 131 -103l135 66l12 -29l-130 -63q59 -129 59 -252q0 -85 -30 -165t-82 -135q-60 -63 -146 -63q-132 0 -132 160zM93 159q0 -132 92 -132 q62 0 101 70q22 39 36 103t14 126q0 118 -91 118q-65 0 -105 -68q-21 -37 -34 -97.5t-13 -119.5z" />
<glyph unicode="&#xf1;" horiz-adv-x="556" d="M24 388l28 20q104 74 133 74q23 0 23 -33q0 -14 -6 -41l-38 -161q69 97 118 142q44 41 91.5 67t78.5 26t31 -36q0 -28 -11 -74l-66 -276q-2 -8 -2 -20q0 -20 13 -20q15 0 61 30l26 17l10 -18q-73 -55 -106.5 -74.5t-53.5 -19.5q-30 0 -30 40q0 23 13 76l52 212 q11 44 11 71q0 24 -17 24q-34 0 -83.5 -41.5t-90.5 -104.5q-34 -52 -53 -109t-33 -151q-26 -5 -70 -17l-7 11q31 107 56.5 228t25.5 159q0 25 -18 25q-10 0 -47 -25l-32 -21zM176 552q15 55 38 79t60 24q27 0 63 -14l60 -24q12 -5 27 -5t25.5 9t25.5 34h28q-9 -49 -34.5 -76 t-62.5 -27q-23 0 -64 16q-46 18 -47 19q-22 9 -38 9q-19 0 -30 -9.5t-22 -34.5h-29z" />
<glyph unicode="&#xf2;" horiz-adv-x="444" d="M17 152q0 92 32.5 165t93.5 116q69 49 135 49q62 0 97.5 -40t35.5 -111q0 -76 -30 -153t-76 -121q-73 -68 -160 -68q-62 0 -95 42t-33 121zM93 151q0 -59 24 -91.5t68 -32.5q47 0 75 33q33 40 54 111.5t21 143.5q0 129 -94 129q-40 0 -60 -17q-37 -30 -62.5 -110.5 t-25.5 -165.5zM194 656q5 12 19.5 21.5t29.5 9.5t27 -18l99 -151h-34l-126 101q-22 17 -15 37z" />
<glyph unicode="&#xf3;" horiz-adv-x="444" d="M17 152q0 92 32.5 165t93.5 116q69 49 135 49q62 0 97.5 -40t35.5 -111q0 -76 -30 -153t-76 -121q-73 -68 -160 -68q-62 0 -95 42t-33 121zM93 151q0 -59 24 -91.5t68 -32.5q47 0 75 33q33 40 54 111.5t21 143.5q0 129 -94 129q-40 0 -60 -17q-37 -30 -62.5 -110.5 t-25.5 -165.5zM169 518l153 151q18 18 33 18t26.5 -9.5t11.5 -21.5q0 -20 -28 -37l-162 -101h-34z" />
<glyph unicode="&#xf4;" horiz-adv-x="444" d="M17 152q0 92 32.5 165t93.5 116q69 49 135 49q62 0 97.5 -40t35.5 -111q0 -76 -30 -153t-76 -121q-73 -68 -160 -68q-62 0 -95 42t-33 121zM93 151q0 -59 24 -91.5t68 -32.5q47 0 75 33q33 40 54 111.5t21 143.5q0 129 -94 129q-40 0 -60 -17q-37 -30 -62.5 -110.5 t-25.5 -165.5zM111 519l157 169h49l88 -169h-36l-82 104l-137 -104h-39z" />
<glyph unicode="&#xf5;" horiz-adv-x="444" d="M17 152q0 92 32.5 165t93.5 116q69 49 135 49q62 0 97.5 -40t35.5 -111q0 -76 -30 -153t-76 -121q-73 -68 -160 -68q-62 0 -95 42t-33 121zM93 151q0 -59 24 -91.5t68 -32.5q47 0 75 33q33 40 54 111.5t21 143.5q0 129 -94 129q-40 0 -60 -17q-37 -30 -62.5 -110.5 t-25.5 -165.5zM121 552q15 55 38 79t60 24q27 0 63 -14l60 -24q12 -5 27 -5t25.5 9t25.5 34h28q-9 -49 -34.5 -76t-62.5 -27q-23 0 -64 16q-46 18 -47 19q-22 9 -38 9q-19 0 -30 -9.5t-22 -34.5h-29z" />
<glyph unicode="&#xf6;" horiz-adv-x="444" d="M17 152q0 92 32.5 165t93.5 116q69 49 135 49q62 0 97.5 -40t35.5 -111q0 -76 -30 -153t-76 -121q-73 -68 -160 -68q-62 0 -95 42t-33 121zM93 151q0 -59 24 -91.5t68 -32.5q47 0 75 33q33 40 54 111.5t21 143.5q0 129 -94 129q-40 0 -60 -17q-37 -30 -62.5 -110.5 t-25.5 -165.5zM156 590q0 26 18 46.5t40 20.5q16 0 26 -11.5t10 -29.5q0 -29 -15.5 -48t-38.5 -19q-19 0 -29.5 11t-10.5 30zM316 590q0 26 18 46.5t40 20.5q16 0 26 -11.5t10 -29.5q0 -29 -15.5 -48t-38.5 -19q-19 0 -29.5 11t-10.5 30z" />
<glyph unicode="&#xf7;" horiz-adv-x="606" d="M40 222v56h526v-56h-526zM245 77q0 24 17 41t41 17t41 -17t17 -41t-17 -41t-41 -17t-41 17t-17 41zM245 423q0 24 17 41t41 17t41 -17t17 -41t-17 -41t-41 -17t-41 17t-17 41z" />
<glyph unicode="&#xf8;" horiz-adv-x="444" d="M-18 -4l53 60q-19 38 -19 94q0 81 29.5 155.5t91 125.5t140.5 51q62 0 99 -40l60 68l24 -20l-66 -75q17 -42 17 -85q0 -65 -24 -134.5t-61 -115.5q-34 -41 -83.5 -66t-96.5 -25q-58 0 -94 40l-46 -53zM92 159q0 -13 3 -35l230 260q-26 60 -83 60q-63 0 -103 -68 q-21 -37 -34 -97.5t-13 -119.5zM103 86q24 -59 82 -59q61 0 100 70q21 37 35.5 99t14.5 116q0 5 -2 23v11z" />
<glyph unicode="&#xf9;" horiz-adv-x="556" d="M32 388l28 20q103 74 133 74q22 0 22 -31q0 -16 -5 -43l-57 -271q-7 -36 -7 -52q0 -26 13 -26q31 0 83.5 48.5t96.5 117.5q45 71 68 189l10 51l68 17l7 -9l-84 -357q-6 -24 -6 -40q0 -17 13 -17q19 0 61 27l26 17l10 -18q-75 -56 -108 -76t-52 -20q-30 0 -30 42 q0 27 11 66l37 142q-63 -103 -142 -176.5t-126 -73.5q-15 0 -25 11.5t-10 28.5q0 28 4 48l63 297q2 10 2 18q0 20 -17 20q-13 0 -48 -23l-32 -21zM252 656q5 12 19.5 21.5t29.5 9.5t27 -18l99 -151h-34l-126 101q-22 17 -15 37z" />
<glyph unicode="&#xfa;" horiz-adv-x="556" d="M32 388l28 20q103 74 133 74q22 0 22 -31q0 -16 -5 -43l-57 -271q-7 -36 -7 -52q0 -26 13 -26q31 0 83.5 48.5t96.5 117.5q45 71 68 189l10 51l68 17l7 -9l-84 -357q-6 -24 -6 -40q0 -17 13 -17q19 0 61 27l26 17l10 -18q-75 -56 -108 -76t-52 -20q-30 0 -30 42 q0 27 11 66l37 142q-63 -103 -142 -176.5t-126 -73.5q-15 0 -25 11.5t-10 28.5q0 28 4 48l63 297q2 10 2 18q0 20 -17 20q-13 0 -48 -23l-32 -21zM227 518l153 151q18 18 33 18t26.5 -9.5t11.5 -21.5q0 -20 -28 -37l-162 -101h-34z" />
<glyph unicode="&#xfb;" horiz-adv-x="556" d="M32 388l28 20q103 74 133 74q22 0 22 -31q0 -16 -5 -43l-57 -271q-7 -36 -7 -52q0 -26 13 -26q31 0 83.5 48.5t96.5 117.5q45 71 68 189l10 51l68 17l7 -9l-84 -357q-6 -24 -6 -40q0 -17 13 -17q19 0 61 27l26 17l10 -18q-75 -56 -108 -76t-52 -20q-30 0 -30 42 q0 27 11 66l37 142q-63 -103 -142 -176.5t-126 -73.5q-15 0 -25 11.5t-10 28.5q0 28 4 48l63 297q2 10 2 18q0 20 -17 20q-13 0 -48 -23l-32 -21zM169 519l157 169h49l88 -169h-36l-82 104l-137 -104h-39z" />
<glyph unicode="&#xfc;" horiz-adv-x="556" d="M32 388l28 20q103 74 133 74q22 0 22 -31q0 -16 -5 -43l-57 -271q-7 -36 -7 -52q0 -26 13 -26q31 0 83.5 48.5t96.5 117.5q45 71 68 189l10 51l68 17l7 -9l-84 -357q-6 -24 -6 -40q0 -17 13 -17q19 0 61 27l26 17l10 -18q-75 -56 -108 -76t-52 -20q-30 0 -30 42 q0 27 11 66l37 142q-63 -103 -142 -176.5t-126 -73.5q-15 0 -25 11.5t-10 28.5q0 28 4 48l63 297q2 10 2 18q0 20 -17 20q-13 0 -48 -23l-32 -21zM214 590q0 26 18 46.5t40 20.5q16 0 26 -11.5t10 -29.5q0 -29 -15.5 -48t-38.5 -19q-19 0 -29.5 11t-10.5 30zM374 590 q0 26 18 46.5t40 20.5q16 0 26 -11.5t10 -29.5q0 -29 -15.5 -48t-38.5 -19q-19 0 -29.5 11t-10.5 30z" />
<glyph unicode="&#xfd;" d="M-8 -198q0 11 1 18l48 34l10 -4q-2 -18 -2 -22q0 -26 18 -44t44 -18q53 0 93 58.5t78 191.5l49 171q-56 -85 -112 -141.5t-84 -56.5q-19 0 -31.5 20t-11.5 51l1 40l17 243q4 67 -21 67q-10 0 -25 -12l-50 -30l-11 18l82 56q58 40 75 40q24 0 24 -63q0 -35 -4 -97 l-15 -194q-5 -61 19 -61q16 0 48 28.5t58 66.5q59 88 80 169l35 132q31 3 74 19l11 -9l-141 -440q-44 -139 -120 -224t-155 -85q-34 0 -58 23t-24 55zM203 518l153 151q18 18 33 18t26.5 -9.5t11.5 -21.5q0 -20 -28 -37l-162 -101h-34z" />
<glyph unicode="&#xfe;" d="M-39 -270q12 54 32.5 155.5t24.5 122.5l112 614q2 14 2 24q0 24 -34 24h-48l4 21q94 9 160 42l12 -11l-94 -434q25 43 43.5 67t47.5 51q82 76 151 76q27 0 43 -30.5t16 -80.5q0 -56 -22 -128t-53 -118q-32 -47 -102 -91.5t-112 -44.5q-19 0 -61 14l-42 -262l-73 -17z M93 59q37 -23 82 -23q63 0 93 44q40 57 66.5 136t26.5 140q0 68 -38 68q-62 0 -128.5 -81.5t-83.5 -177.5z" />
<glyph unicode="&#xff;" d="M-8 -198q0 11 1 18l48 34l10 -4q-2 -18 -2 -22q0 -26 18 -44t44 -18q53 0 93 58.5t78 191.5l49 171q-56 -85 -112 -141.5t-84 -56.5q-19 0 -31.5 20t-11.5 51l1 40l17 243q4 67 -21 67q-10 0 -25 -12l-50 -30l-11 18l82 56q58 40 75 40q24 0 24 -63q0 -35 -4 -97 l-15 -194q-5 -61 19 -61q16 0 48 28.5t58 66.5q59 88 80 169l35 132q31 3 74 19l11 -9l-141 -440q-44 -139 -120 -224t-155 -85q-34 0 -58 23t-24 55zM190 590q0 26 18 46.5t40 20.5q16 0 26 -11.5t10 -29.5q0 -29 -15.5 -48t-38.5 -19q-19 0 -29.5 11t-10.5 30zM350 590 q0 26 18 46.5t40 20.5q16 0 26 -11.5t10 -29.5q0 -29 -15.5 -48t-38.5 -19q-19 0 -29.5 11t-10.5 30z" />
<glyph unicode="&#x152;" horiz-adv-x="1028" d="M56 264q0 96 34.5 185t95.5 150q106 108 262 108q65 0 106 -18.5t81 -65.5l10 69q30 -3 60 -3q40 0 118.5 1.5t117.5 1.5q36 0 69 -3q-17 -57 -21 -152h-24l-8 89q-1 12 -30 18.5t-77 5.5q-41 -1 -130 -4q-5 -10 -9 -32l-42 -238h37l219 6l4 -7l-19 -45q-9 0 -16 1 t-14 1.5t-32.5 1t-69.5 0.5h-117l-43 -253q-2 -12 -2 -35q73 -7 131 -7q112 0 150 10q16 4 24 15t15 37l16 60h27q-16 -80 -21 -125l-4 -36q-5 0 -29.5 -1.5t-75.5 -1.5q-37 0 -112 1.5t-113 1.5q-52 0 -104 -3l24 93q-53 -58 -106 -82q-60 -26 -128 -26q-121 0 -187.5 74 t-66.5 208zM144 285q0 -121 48.5 -191t132.5 -70q86 0 157 71t89 175l29 169q5 32 5 57q0 82 -46 125.5t-132 43.5q-106 0 -172 -69q-52 -55 -81.5 -137t-29.5 -174z" />
<glyph unicode="&#x153;" horiz-adv-x="669" d="M17 152q0 147 86 244q35 40 81.5 63t89.5 23q84 0 126 -86q67 50 103.5 68t70.5 18q35 0 57.5 -23t22.5 -58q0 -68 -76 -117q-56 -36 -194 -74q-9 -50 -9 -83q0 -42 21 -66.5t58 -24.5q54 0 137 59l22 16l6 -23q-67 -55 -111.5 -77t-88.5 -22q-90 0 -109 82 q-44 -46 -80 -64t-82 -18q-131 0 -131 163zM93 153q0 -126 94 -126q57 0 86 49q26 44 42.5 114.5t16.5 135.5q0 118 -94 118q-37 0 -63 -23t-46 -75q-36 -92 -36 -193zM388 234q93 21 142.5 60.5t49.5 92.5t-45 53q-32 0 -61.5 -20t-48.5 -54q-20 -38 -37 -132z" />
<glyph unicode="&#x178;" horiz-adv-x="667" d="M52 647l79 58q69 -1 114 -83.5t101 -311.5q42 111 128 226q55 75 100 111t101 50l-6 -71q-44 -8 -80 -33.5t-79 -80.5q-55 -69 -98 -146.5t-50 -119.5l-26 -168q-2 -10 -2 -21q0 -15 8 -21t28 -8l49 -3l-3 -28q-62 3 -123 3q-70 0 -139 -3l4 28l48 3q30 2 38.5 15.5 t19.5 81.5l22 132q0 12 -22 91.5t-40 128.5q-31 84 -60 121t-64 37q-14 0 -45 -12zM296 804q0 26 18 46.5t40 20.5q16 0 26 -11.5t10 -29.5q0 -29 -15.5 -48t-38.5 -19q-19 0 -29.5 11t-10.5 30zM456 804q0 26 18 46.5t40 20.5q16 0 26 -11.5t10 -29.5q0 -29 -15.5 -48 t-38.5 -19q-19 0 -29.5 11t-10.5 30z" />
<glyph unicode="&#x2c6;" horiz-adv-x="333" d="M100 519l157 169h49l88 -169h-36l-82 104l-137 -104h-39z" />
<glyph unicode="&#x2dc;" horiz-adv-x="333" d="M110 552q15 55 38 79t60 24q27 0 63 -14l60 -24q12 -5 27 -5t25.5 9t25.5 34h28q-9 -49 -34.5 -76t-62.5 -27q-23 0 -64 16q-46 18 -47 19q-22 9 -38 9q-19 0 -30 -9.5t-22 -34.5h-29z" />
<glyph unicode="&#x2000;" horiz-adv-x="468" />
<glyph unicode="&#x2001;" horiz-adv-x="937" />
<glyph unicode="&#x2002;" horiz-adv-x="468" />
<glyph unicode="&#x2003;" horiz-adv-x="937" />
<glyph unicode="&#x2004;" horiz-adv-x="312" />
<glyph unicode="&#x2005;" horiz-adv-x="234" />
<glyph unicode="&#x2006;" horiz-adv-x="156" />
<glyph unicode="&#x2007;" horiz-adv-x="156" />
<glyph unicode="&#x2008;" horiz-adv-x="117" />
<glyph unicode="&#x2009;" horiz-adv-x="187" />
<glyph unicode="&#x200a;" horiz-adv-x="52" />
<glyph unicode="&#x2010;" horiz-adv-x="333" d="M19 223l19 58h266l-18 -58h-267z" />
<glyph unicode="&#x2011;" horiz-adv-x="333" d="M19 223l19 58h266l-18 -58h-267z" />
<glyph unicode="&#x2012;" horiz-adv-x="333" d="M19 223l19 58h266l-18 -58h-267z" />
<glyph unicode="&#x2013;" d="M-10 228l10 50h510l-10 -50h-510z" />
<glyph unicode="&#x2014;" horiz-adv-x="1000" d="M-10 228l10 50h1010l-10 -50h-1010z" />
<glyph unicode="&#x2018;" horiz-adv-x="278" d="M78 506q69 132 141 214l32 13l7 -9q-68 -106 -82 -211q-38 -7 -89 -25z" />
<glyph unicode="&#x2019;" horiz-adv-x="278" d="M78 497q68 106 82 211q35 5 89 25l9 -18q-69 -132 -141 -214l-32 -13z" />
<glyph unicode="&#x201a;" horiz-adv-x="278" d="M27 -115q59 82 85 210l88 25l11 -12q-62 -125 -143 -218l-32 -12z" />
<glyph unicode="&#x201c;" d="M98 506q69 132 141 214l32 13l7 -9q-68 -106 -82 -211q-38 -7 -89 -25zM295 506q69 132 141 214l32 13l7 -9q-68 -106 -82 -211q-38 -7 -89 -25z" />
<glyph unicode="&#x201d;" d="M98 497q68 106 82 211q35 5 89 25l9 -18q-69 -132 -141 -214l-32 -13zM295 497q68 106 82 211q35 5 89 25l9 -18q-69 -132 -141 -214l-32 -13z" />
<glyph unicode="&#x201e;" d="M43 -115q59 82 85 210l88 25l11 -12q-62 -125 -143 -218l-32 -12zM240 -115q59 82 85 210l88 25l11 -12q-62 -125 -143 -218l-32 -12z" />
<glyph unicode="&#x2022;" d="M86 355q0 70 51 120.5t121 50.5t121 -51t51 -121t-51 -121t-121 -51q-71 0 -121.5 51t-50.5 122z" />
<glyph unicode="&#x2026;" horiz-adv-x="1000" d="M102 42q0 29 17.5 49.5t42.5 20.5q19 0 32 -14t13 -34q0 -28 -18 -48.5t-43 -20.5q-20 0 -32 12.5t-12 34.5zM435 42q0 29 17.5 49.5t42.5 20.5q19 0 32 -14t13 -34q0 -28 -18 -48.5t-43 -20.5q-20 0 -32 12.5t-12 34.5zM768 42q0 29 17.5 49.5t42.5 20.5q19 0 32 -14 t13 -34q0 -28 -18 -48.5t-43 -20.5q-20 0 -32 12.5t-12 34.5z" />
<glyph unicode="&#x202f;" horiz-adv-x="187" />
<glyph unicode="&#x2039;" horiz-adv-x="333" d="M57 251v16l194 173l19 -16l-137 -168l95 -171l-20 -15z" />
<glyph unicode="&#x203a;" horiz-adv-x="333" d="M63 86l137 168l-95 171l20 15l151 -181v-16l-194 -173z" />
<glyph unicode="&#x205f;" horiz-adv-x="234" />
<glyph unicode="&#x20ac;" d="M46 274l27 51q25 -5 56 -5l10 56q-61 0 -74 -1l27 51q20 -6 61 -6q37 113 114.5 191t190.5 78q107 0 156 -49q-2 -7 -11 -32t-16.5 -50.5t-10.5 -43.5h-31l14 90q-21 50 -112 50q-60 0 -119.5 -64t-91.5 -170h171q51 0 90 6l-27 -52l-247 2q-5 -22 -11 -56q157 0 231 5 l-27 -51l-209 2q-10 -118 26.5 -189.5t101.5 -71.5q86 0 126 46l19 94h32q-3 -18 -4.5 -43t-1.5 -51.5v-31.5q-63 -49 -173 -49q-64 0 -109 25.5t-67.5 69.5t-30 94t-2.5 107q-50 0 -78 -2z" />
<glyph unicode="&#x2122;" horiz-adv-x="1025" d="M152 599l10 93q56 -2 170 -2q113 0 170 2l-15 -93h-23l2 36q2 10 -3 18q-2 8 -66 8h-37l-49 -288q-2 -12 -2 -18q1 -12 16 -12l36 -2l-2 -22q-26 2 -80 2q-57 0 -86 -2l3 22l31 2q7 0 11.5 3.5t7.5 12.5t4.5 14t3.5 17l44 271h-60q-39 0 -45 -6q-5 -6 -9 -22l-9 -34h-23z M493 319l3 21q38 2 48 34l80 267q1 3 1 10q0 16 -39 18l-17 1l2 22q17 -2 51 -2q37 0 55 2l93 -297l135 212q22 34 50 85q17 -2 51 -2t51 2l-2 -22l-24 -1q-20 -2 -20 -13l-18 -279v-19q0 -13 27 -15l23 -2l-3 -22q-26 2 -80 2t-81 -2l2 22l19 2q33 2 33 17l15 256 q-31 -48 -87.5 -138.5t-68.5 -108.5l-33 -57h-21l-91 290l-64 -227q-3 -11 -3 -21q0 -9 27 -11l23 -2l-2 -22q-22 2 -67 2t-68 -2z" />
<glyph unicode="&#xe000;" horiz-adv-x="480" d="M0 0v480h480v-480h-480z" />
</font>
</defs>
</svg>
