<?xml version="1.0" standalone="no"?>
<!DOCTYPE svg PUBLIC "-//W3C//DTD SVG 1.1//EN" "http://www.w3.org/Graphics/SVG/1.1/DTD/svg11.dtd" >
<svg xmlns="http://www.w3.org/2000/svg">
<metadata></metadata>
<defs>
<font id="texgyrepagellaregular" horiz-adv-x="500" >
<font-face units-per-em="1000" ascent="726" descent="-274" />
<missing-glyph horiz-adv-x="250" />
<glyph unicode="&#xfb01;" horiz-adv-x="605" d="M23 -3v30l46 3q25 1 31 12.5t6 59.5v283l-69 -4v22l69 31v42q0 96 42 144l58 66q37 42 89 42q17 0 46 -11v-77l-12 -6q-32 28 -69 28q-43 0 -56.5 -28t-13.5 -115v-85q72 0 131 4l-7 -53h-124v-283q0 -48 6 -59.5t31 -12.5l46 -3v-30q-63 3 -125 3t-125 -3zM337 -3v30 l46 3q25 1 31 12.5t6 59.5v223q0 50 -7 61.5t-37 11.5h-37v28q92 11 156 43l9 -7v-360q0 -48 6 -59.5t31 -12.5l46 -3v-30q-63 3 -125 3t-125 -3zM411 631q0 23 16.5 39.5t39.5 16.5q21 0 38 -17t17 -39t-17 -38.5t-39 -16.5t-38.5 16.5t-16.5 38.5z" />
<glyph unicode="&#xfb02;" horiz-adv-x="608" d="M23 -3v30l46 3q25 1 31 12.5t6 59.5v283l-69 -4v22l69 31v42q0 96 42 144l58 66q37 42 88 42q2 0 62 -11v-28q93 19 142 37l9 -10v-614q0 -48 6 -59.5t31 -12.5l46 -3v-30q-63 3 -125 3t-125 -3v30l46 3q25 1 31 12.5t6 59.5v504q0 55 -25 55h-42v-21l-22 -6 q-40 28 -75 28q-42 0 -55.5 -28.5t-13.5 -114.5v-85q72 0 131 4l-7 -53h-124v-283q0 -48 6 -59.5t31 -12.5l52 -3v-30q-65 3 -130 3q-63 0 -126 -3z" />
<glyph unicode="&#xfb03;" horiz-adv-x="897" d="M23 -3v30l46 3q25 1 31 12.5t6 59.5v283l-69 -4v22l69 31v42q0 96 42 144l58 66q37 42 88 42q20 0 47 -11v-77l-12 -6q-32 28 -69 28q-43 0 -56.5 -28t-13.5 -115v-85h205v42q0 96 42 144l58 66q37 42 88 42q19 0 47 -11v-77l-12 -6q-32 28 -69 28q-43 0 -56.5 -28 t-13.5 -115v-85l121 4l-7 -53h-114v-283q0 -48 6 -59.5t31 -12.5l52 -3v-30q-64 3 -130 3q-63 0 -126 -3v30l46 3q25 1 31 12.5t6 59.5v283h-205v-283q0 -48 6 -59.5t31 -12.5l46 -3v-30q-63 3 -125 3t-125 -3zM626 -3v30l46 3q25 1 31 12.5t6 59.5v223q0 50 -7 61.5 t-37 11.5h-37v28q92 11 156 43l9 -7v-360q0 -48 6 -59.5t31 -12.5l46 -3v-30q-63 3 -125 3t-125 -3zM700 631q0 23 17 39.5t39 16.5q21 0 38 -17t17 -39t-17 -38.5t-39 -16.5t-38.5 16.5t-16.5 38.5z" />
<glyph unicode="&#xfb04;" horiz-adv-x="900" d="M23 -3v30l46 3q25 1 31 12.5t6 59.5v283l-69 -4v22l69 31v42q0 96 42 144l58 66q37 42 88 42q20 0 47 -11v-77l-12 -6q-32 28 -69 28q-43 0 -56.5 -28t-13.5 -115v-85h206v42q0 96 42 144l58 66q37 42 88 42q2 0 62 -11v-28q93 19 142 37l9 -10v-614q0 -48 6 -59.5 t31 -12.5l46 -3v-30q-63 3 -125 3t-125 -3v30l46 3q25 1 31 12.5t6 59.5v504q0 55 -25 55h-42v-21l-22 -6q-40 28 -75 28q-42 0 -55.5 -28.5t-13.5 -114.5v-85l131 4l-7 -53h-124v-283q0 -48 6 -59.5t31 -12.5l52 -3v-30q-65 3 -130 3q-63 0 -126 -3v30l46 3q25 1 31 12.5 t6 59.5v283h-206v-283q0 -48 6 -59.5t31 -12.5l46 -3v-30q-63 3 -125 3t-125 -3z" />
<glyph horiz-adv-x="1000" />
<glyph horiz-adv-x="1000" />
<glyph unicode="&#xd;" horiz-adv-x="1000" />
<glyph unicode=" "  horiz-adv-x="250" />
<glyph unicode="&#x09;" horiz-adv-x="250" />
<glyph unicode="&#xa0;" horiz-adv-x="250" />
<glyph unicode="!" horiz-adv-x="278" d="M81 53q0 23 17.5 40.5t39.5 17.5q23 0 41 -17.5t18 -40.5t-18 -40.5t-42 -17.5q-22 0 -39 17.5t-17 40.5zM85 656l75 38h34v-25q0 -38 -7 -95l-29 -326v-25l-28 -23l-10 5q-6 89 -19 250.5t-16 200.5z" />
<glyph unicode="&#x22;" horiz-adv-x="371" d="M52 665v5q0 14 13.5 26.5t29.5 12.5t29 -12t13 -26v-6l-32 -196h-20zM233 665v5q0 14 13.5 26.5t29.5 12.5t29 -12t13 -26v-6l-32 -196h-20z" />
<glyph unicode="#" d="M4 224v56h116l21 139h-110v56h118l31 209h58l-31 -209h133l30 209h58l-30 -209h97v-56h-105l-20 -139h100v-56h-109l-31 -224h-58l31 224h-134l-33 -224h-58l33 224h-107zM178 280h134l20 139h-133z" />
<glyph unicode="$" d="M30 24q8 55 12 148h32v-64q0 -27 14 -41q40 -39 135 -49v279q-105 12 -143 41q-50 37 -50 120q0 114 88 171q38 25 105 37l-4 65h45q-3 -27 -4 -62q105 -8 166 -43q-13 -48 -13 -126h-32v42q0 28 -4.5 40t-18.5 22q-37 24 -98 29v-260q114 -12 157 -43q54 -39 54 -123 q0 -117 -97 -180q-43 -29 -114 -43l4 -100h-45q1 15 4 98q-92 1 -193 42zM105 494q0 -55 26.5 -81t91.5 -34v251q-46 -5 -72 -26q-46 -37 -46 -110zM260 18q60 11 96 52.5t36 102.5q0 55 -29.5 81.5t-102.5 37.5v-274z" />
<glyph unicode="%" horiz-adv-x="840" d="M39 522q0 73 46.5 120t117.5 47q65 0 108.5 -44t43.5 -110q0 -72 -46 -119.5t-116 -47.5q-67 0 -110.5 43.5t-43.5 110.5zM111 526q0 -65 21.5 -100t61.5 -35t64.5 38.5t24.5 103.5q0 61 -22.5 97t-60.5 36q-41 0 -65 -37.5t-24 -102.5zM210 -20l366 729h40l-366 -729 h-40zM486 154q0 73 46.5 120t117.5 47q65 0 108.5 -44t43.5 -110q0 -72 -46 -119.5t-116 -47.5q-67 0 -110.5 43.5t-43.5 110.5zM558 158q0 -65 21.5 -100t61.5 -35t64.5 38.5t24.5 103.5q0 61 -22.5 97t-60.5 36q-41 0 -65 -37.5t-24 -102.5z" />
<glyph unicode="&#x26;" horiz-adv-x="778" d="M43 172q0 75 53 137q36 40 102 78q-30 76 -30 133q0 65 24 86l68 60q26 23 66 23q47 0 72.5 -23.5t25.5 -66.5q0 -68 -64 -136q-27 -27 -80 -66q79 -128 204 -256q48 64 48 113q0 31 -8 54t-19 26q-16 4 -87 10l33 45l97 -2l194 7q-12 -39 -12 -72q-55 8 -140 12 q5 -19 5 -39q0 -47 -18.5 -87t-62.5 -90q64 -37 99.5 -50t72.5 -13q20 0 61 19l6 -25l-87 -63q-9 -6 -34 -6q-36 0 -86.5 21.5t-94.5 55.5q-99 -77 -202 -77q-89 0 -147.5 54t-58.5 138zM130 209q0 -70 49.5 -121.5t116.5 -51.5q56 0 124 46q-86 96 -130 153t-77 117 q-46 -36 -64.5 -68t-18.5 -75zM238 557q0 -49 26 -126q41 29 67 66.5t26 71.5q0 29 -16.5 48t-41.5 19q-61 0 -61 -79z" />
<glyph unicode="'" horiz-adv-x="208" d="M61 665v5q0 14 13.5 26.5t29.5 12.5t29 -12t13 -26v-6l-32 -196h-20z" />
<glyph unicode="(" horiz-adv-x="333" d="M60 266q0 114 39 214q28 73 66.5 124.5t116.5 121.5l19 -26q-55 -64 -81 -108.5t-45 -106.5q-29 -94 -29 -219q0 -127 31 -233q20 -68 45 -114t79 -113l-19 -21q-62 58 -92.5 95.5t-56.5 87.5q-73 137 -73 298z" />
<glyph unicode=")" horiz-adv-x="333" d="M32 -194q54 67 79 113t45 114q31 106 31 233q0 121 -30 219q-19 62 -44.5 106.5t-80.5 108.5l19 26q78 -71 116.5 -122t66.5 -124q39 -100 39 -215q0 -185 -93 -333q-40 -63 -129 -147z" />
<glyph unicode="*" horiz-adv-x="389" d="M32 451l5 9l131 54l-131 64l-3 10l44 52h10l95 -98l26 143l9 4l62 -19l3 -15l-69 -125l139 24l6 -4v-62l-9 -8l-138 20l68 -122v-10l-68 -26l-10 4l-18 142l-106 -88h-10z" />
<glyph unicode="+" horiz-adv-x="606" d="M40 222v56h235v235h56v-235h235v-56h-235v-235h-56v235h-235z" />
<glyph unicode="," horiz-adv-x="250" d="M16 -144q44 72 64.5 126t25.5 111q53 15 98 30l14 -14q-37 -103 -147 -245l-41 -19z" />
<glyph unicode="-" horiz-adv-x="333" d="M17 220l27 67h263l5 -5l-30 -67h-260z" />
<glyph unicode="." horiz-adv-x="250" d="M67 53q0 23 17.5 40.5t39.5 17.5q23 0 41 -17.5t18 -40.5t-18 -40.5t-42 -17.5q-22 0 -39 17.5t-17 40.5z" />
<glyph unicode="/" horiz-adv-x="606" d="M87 -119l372 845h60l-372 -845h-60z" />
<glyph unicode="0" d="M29 324q0 365 234 365q103 0 152.5 -79.5t49.5 -243.5q0 -386 -227 -386q-98 0 -153 77q-56 78 -56 267zM113 360q0 -183 32.5 -264t105.5 -81q69 0 99.5 70.5t30.5 230.5q0 180 -31.5 259t-104.5 79q-71 0 -101.5 -68t-30.5 -226z" />
<glyph unicode="1" d="M60 598q133 47 227 96l14 -5v-593q0 -39 12 -51.5t53 -14.5l52 -3v-30q-78 3 -157 3q-83 0 -165 -3v30l56 3q41 2 53 14.5t12 51.5v485q0 33 -8 33q-26 -11 -72.5 -32t-59.5 -27h-10z" />
<glyph unicode="2" d="M16 -3v26l170 181q84 90 119.5 151.5t35.5 117.5q0 64 -38 101.5t-103 37.5q-50 0 -78.5 -20t-40.5 -63l-13 -46h-29l17 136q37 37 76.5 53.5t93.5 16.5q95 0 150 -50t55 -136q0 -56 -27 -106t-100 -127l-182 -193l346 10q-2 -22 -2 -45q0 -24 2 -45q-114 3 -229 3 q-112 0 -223 -3z" />
<glyph unicode="3" d="M15 153l27 10q25 -70 56 -99q46 -43 117 -43q70 0 112 46t42 123q0 68 -34.5 106t-96.5 38q-35 0 -84 -22l-7 6l12 53q39 -3 47 -3q53 0 91.5 41t38.5 97q0 47 -34.5 81.5t-83.5 34.5q-39 0 -78.5 -21.5t-47.5 -46.5l-18 -56h-31l29 124q36 36 73 51.5t88 15.5 q83 0 134 -40.5t51 -107.5q0 -44 -25 -82.5t-85 -84.5q66 -12 98 -35q56 -39 56 -115q0 -66 -44.5 -124t-108.5 -89t-125 -31q-57 0 -134 26q-8 70 -35 147z" />
<glyph unicode="4" d="M2 204l283 463l74 27l12 -5q-7 -57 -7 -305v-139h27l81 3v-71q-37 4 -108 4v-75q0 -45 11.5 -59.5t48.5 -16.5l48 -3v-30q-76 3 -153 3q-80 0 -161 -3v30l62 3q37 1 48.5 16t11.5 60v75h-267zM65 245h215v352z" />
<glyph unicode="5" d="M13 137l24 14l46 -82q10 -19 43.5 -31.5t74.5 -12.5q82 0 127.5 46.5t45.5 129.5q0 81 -42 128.5t-114 47.5q-36 0 -62 -12.5t-61 -48.5l-20 6q6 88 6 225l-2 137l5 5q106 -5 174 -5l174 5l5 -5q-2 -18 -2 -40q0 -21 2 -39l-5 -5l-305 5l-9 -209q84 50 146 50 q86 0 140.5 -54t54.5 -139q0 -114 -93 -196q-88 -77 -193 -77q-66 0 -111 24q-17 55 -49 133z" />
<glyph unicode="6" d="M32 247q0 212 159 346q38 33 76.5 52.5t111.5 43.5l37 -17v-8q-135 -41 -202 -119t-83 -214q54 44 87 61t75 17q79 0 127 -52t48 -138q0 -102 -65 -170.5t-162 -68.5t-153 71.5t-56 195.5zM123 220q0 -101 33.5 -154t97.5 -53q58 0 93 46.5t35 124.5q0 74 -35 119.5 t-92 45.5q-36 0 -68 -16t-49 -42q-15 -23 -15 -71z" />
<glyph unicode="7" d="M44 477q3 62 3 102l-3 105l10 5q121 -5 219 -5q89 0 224 5v-30l-183 -329q-61 -110 -90.5 -174t-66.5 -159q-28 3 -46 3l-46 -3l-9 13l244 392q50 81 109 201h-267q-35 0 -45 -12t-16 -58l-7 -56h-30z" />
<glyph unicode="8" d="M30 159q0 77 58 135q28 27 80 51q-66 43 -90.5 77.5t-24.5 85.5q0 79 58.5 130t147.5 51q79 0 128 -39.5t49 -104.5q0 -45 -27.5 -81t-95.5 -83q85 -39 118 -77t33 -98q0 -93 -70 -159.5t-168 -66.5q-85 0 -140.5 51t-55.5 128zM101 167q0 -70 38 -111.5t102 -41.5 q61 0 102.5 43.5t41.5 106.5q0 40 -27 75t-74 56l-80 36q-56 -34 -79.5 -71.5t-23.5 -92.5zM128 544q0 -74 95 -121l55 -27q49 31 69.5 63t20.5 75q0 55 -33 88t-88 33q-53 0 -86 -30.5t-33 -80.5z" />
<glyph unicode="9" d="M20 455q0 100 64 167t160 67q99 0 156 -72.5t57 -199.5q0 -205 -148 -332q-40 -34 -84.5 -56t-128.5 -49l-34 17v8q136 33 214 121t84 214l-70 -58q-31 -26 -91 -26q-78 0 -128.5 56.5t-50.5 142.5zM106 492q0 -78 37 -126.5t97 -48.5q58 0 94 42.5t36 111.5 q0 73 -30 126q-32 59 -100 59q-62 0 -98 -44t-36 -120z" />
<glyph unicode=":" horiz-adv-x="250" d="M66 53q0 23 17.5 40.5t39.5 17.5q23 0 41 -17.5t18 -40.5t-18 -40.5t-42 -17.5q-22 0 -39 17.5t-17 40.5zM66 398q0 23 17.5 40.5t39.5 17.5q23 0 41 -18t18 -41t-18 -40t-42 -17q-22 0 -39 17.5t-17 40.5z" />
<glyph unicode=";" horiz-adv-x="250" d="M16 -142q44 72 64.5 126t25.5 111q53 15 98 30l14 -14q-37 -103 -147 -245l-41 -19zM93 398q0 23 17.5 40.5t39.5 17.5q23 0 41 -18t18 -41t-18 -40t-42 -17q-22 0 -39 17.5t-17 40.5z" />
<glyph unicode="&#x3c;" horiz-adv-x="606" d="M69 224v52l457 204v-62l-377 -168l377 -168v-62z" />
<glyph unicode="=" horiz-adv-x="606" d="M40 136v56h526v-56h-526zM40 309v56h526v-56h-526z" />
<glyph unicode="&#x3e;" horiz-adv-x="606" d="M69 20v62l377 168l-377 168v62l457 -204v-52z" />
<glyph unicode="?" horiz-adv-x="444" d="M43 546l38 113q71 35 132 35q77 0 129.5 -44.5t52.5 -109.5q0 -43 -23 -79t-87 -95q-61 -55 -77.5 -76.5t-16.5 -46.5q0 -22 22 -48l-21 -14q-44 28 -44 73q0 26 15.5 52t61.5 76q44 49 60.5 78t16.5 59q0 48 -34.5 78.5t-88.5 30.5q-70 0 -87 -42l-20 -48zM141 53 q0 23 17.5 40.5t39.5 17.5q23 0 41 -17.5t18 -40.5t-18 -40.5t-42 -17.5q-22 0 -39 17.5t-17 40.5z" />
<glyph unicode="@" horiz-adv-x="747" d="M24 331q0 153 106.5 258t262.5 105q139 0 235 -82.5t96 -202.5q0 -103 -73 -189t-160 -86q-68 0 -76 84q-37 -47 -62.5 -63t-60.5 -16q-56 0 -94.5 41t-38.5 100q0 89 66 159t151 70q71 0 88 -80l18 70h88l-77 -279q-7 -22 -1.5 -39.5t22.5 -17.5q56 0 106.5 78t50.5 164 q0 103 -78 171t-196 68q-137 0 -227.5 -87.5t-90.5 -219.5t91.5 -219.5t230.5 -87.5q66 0 122 25q42 19 70.5 43.5t64.5 72.5h61q-39 -64 -79 -99q-104 -92 -246 -92q-156 0 -263 101.5t-107 249.5zM248 254q0 -40 16.5 -64t43.5 -24q39 0 72 44.5t49 99.5t16 100 q0 31 -14.5 51.5t-37.5 20.5q-39 0 -74 -41t-53 -93.5t-18 -93.5z" />
<glyph unicode="A" horiz-adv-x="778" d="M15 -3v30l37 3q33 3 54 49l221 502l49 119h32l242 -568q27 -63 40 -82t32 -20l34 -3v-30q-63 3 -127 3q-70 0 -139 -3v30l47 3q41 3 41 20q0 12 -21 64l-46 115h-288l-28 -67q-35 -83 -35 -106q0 -22 48 -26l37 -3v-30q-60 3 -121 3q-55 0 -109 -3zM240 269h253l-126 298 z" />
<glyph unicode="B" horiz-adv-x="611" d="M26 662v30q79 -3 158 -3q30 0 89.5 1.5t89.5 1.5q179 0 179 -136q0 -78 -73 -128q-37 -25 -100 -38q59 -5 90 -13.5t59 -29.5q58 -41 58 -119q0 -53 -25 -101t-69 -79q-70 -51 -184 -51q-20 0 -62 1.5t-62 1.5q-55 0 -109 -3v23l26 10q22 8 22 65v474q0 59 -8 73t-43 17z M208 47q33 -8 77 -8q89 0 138.5 44.5t49.5 124.5t-48.5 118t-149.5 38q-28 0 -67 -2v-315zM208 401q31 -2 61 -2q85 0 129.5 34.5t44.5 99.5q0 62 -37 90.5t-117 28.5q-46 0 -81 -8v-243z" />
<glyph unicode="C" horiz-adv-x="709" d="M22 342q0 205 174 307q103 60 237 60q107 0 231 -41q-18 -83 -19 -152h-31v72q0 29 -62.5 54t-136.5 25q-129 0 -207.5 -84t-78.5 -222q0 -148 89.5 -237.5t235.5 -89.5q114 0 207 60l9 -10l-28 -50q-104 -54 -227 -54q-176 0 -284.5 100t-108.5 262z" />
<glyph unicode="D" horiz-adv-x="774" d="M22 662v30q103 -3 206 -3q29 0 87 1.5t87 1.5q158 0 253.5 -84t95.5 -223q0 -80 -31 -156.5t-85 -129.5q-103 -102 -294 -102q-24 0 -72.5 1.5t-72.5 1.5q-70 0 -139 -3v23l31 16q25 12 25 59v474q0 59 -8.5 73.5t-42.5 16.5zM208 49q35 -8 103 -8q85 0 136.5 14.5 t96.5 51.5q100 82 100 252q0 149 -71 220q-73 73 -254 73q-69 0 -111 -8v-595z" />
<glyph unicode="E" horiz-adv-x="611" d="M22 662v30q88 -3 178 -3q116 0 232 3l124 -3q-16 -64 -16 -152h-35v65q0 17 -4.5 23t-22.5 11q-50 14 -145 14q-82 0 -117 -8v-267q59 -4 160 -4q35 0 49.5 7t20.5 31l5 52h30q-3 -59 -3 -116q0 -55 3 -111h-30q-1 37 -5 59q-5 23 -19.5 30t-50.5 7l-160 -3v-280 q39 -8 99 -8q148 0 184 12q23 8 33 79l5 34h35q-16 -83 -16 -164l-167 -3q-115 3 -232 3q-61 0 -123 -3v30l36 3q35 3 43 17t8 73v449q0 59 -8 73.5t-43 16.5z" />
<glyph unicode="F" horiz-adv-x="556" d="M22 -3v30l48 3q35 2 43 16.5t8 73.5v449q0 59 -8 73.5t-43 16.5l-48 3v30q88 -3 176 -3q108 0 216 3l122 -3q-16 -64 -16 -152h-35v65q0 18 -4.5 24t-22.5 10q-54 14 -135 14q-73 0 -107 -8v-267q59 -4 158 -4q37 0 53.5 7t18.5 31l5 52h30q-3 -59 -3 -116q0 -55 3 -111 h-30q-1 37 -5 59q-5 23 -19.5 30t-50.5 7l-160 -3v-207q0 -59 8 -73.5t43 -16.5l48 -3v-30q-73 3 -147 3q-72 0 -146 -3z" />
<glyph unicode="G" horiz-adv-x="763" d="M22 341q0 166 117 267t311 101q60 0 109 -8.5t133 -32.5q-20 -77 -20 -152h-31v53q0 28 -19.5 47t-63.5 33q-57 18 -134 18q-140 0 -217.5 -80t-77.5 -225q0 -156 87.5 -248t236.5 -92q50 0 89.5 9.5t47.5 23.5q6 11 6 43v101q0 18 -7.5 25.5t-26.5 9.5l-83 7v30 q62 -3 122 -3q61 0 123 3l4 -25l-29 -10q-8 -3 -9.5 -8.5t-1.5 -28.5v-168q-183 -51 -276 -51q-86 0 -163 29t-130 80q-97 97 -97 252z" />
<glyph unicode="H" horiz-adv-x="832" d="M22 -3v30l48 3q35 2 43 16.5t8 73.5v449q0 59 -8 73.5t-43 16.5l-48 3v30q74 -3 146 -3q74 0 147 3v-30l-48 -3q-35 -2 -43 -16.5t-8 -73.5v-178q40 -2 83 -2h234q41 0 83 2v178q0 59 -8 73.5t-43 16.5l-48 3v30q73 -3 146 -3t147 3v-30l-48 -3q-35 -2 -43 -16.5 t-8 -73.5v-449q0 -59 8 -73.5t43 -16.5l48 -3v-30q-74 3 -147 3t-146 -3v30l48 3q35 2 43 16.5t8 73.5v223q-27 2 -83 2h-234q-56 0 -83 -2v-223q0 -59 8 -73.5t43 -16.5l48 -3v-30q-73 3 -147 3q-72 0 -146 -3z" />
<glyph unicode="I" horiz-adv-x="337" d="M22 -3v30l48 3q35 2 43 16.5t8 73.5v449q0 59 -8 73.5t-43 16.5l-48 3v30q74 -3 146 -3q74 0 147 3v-30l-48 -3q-35 -2 -43 -16.5t-8 -73.5v-449q0 -59 8 -73.5t43 -16.5l48 -3v-30q-73 3 -147 3q-72 0 -146 -3z" />
<glyph unicode="J" horiz-adv-x="333" d="M-15 -116l11 6q33 -20 67 -20q30 0 42 25t12 88v586q0 59 -8 73.5t-43 16.5l-48 3v30q73 -3 146 -3q74 0 147 3v-30l-48 -3q-35 -2 -43 -16.5t-8 -73.5v-452q0 -91 -12.5 -138.5t-49.5 -92.5q-29 -36 -69.5 -60t-66.5 -21l-24 3z" />
<glyph unicode="K" horiz-adv-x="726" d="M22 -3v30l48 3q35 2 43 16.5t8 73.5v449q0 59 -8 73.5t-43 16.5l-48 3v30q74 -3 146 -3q74 0 147 3v-30l-48 -3q-35 -2 -43 -16.5t-8 -73.5v-214l278 271q29 29 29 39v27q45 -3 89 -3q40 0 80 3v-30l-42 -2q-37 -1 -78 -38l-266 -240l330 -312q42 -40 62 -41l21 -2v-30 q-33 3 -65 3q-40 0 -80 -3l-348 335l-10 -7v-205q0 -59 8 -73.5t43 -16.5l48 -3v-30q-73 3 -147 3q-72 0 -146 -3z" />
<glyph unicode="L" horiz-adv-x="611" d="M22 662v30q74 -3 146 -3q74 0 147 3v-30l-48 -3q-35 -2 -43 -16.5t-8 -73.5v-522q35 -8 85 -8q198 0 219 18q9 7 22 65l12 50h32q-12 -117 -21 -172q-136 -3 -168 -3q-39 0 -116.5 1.5t-116.5 1.5q-50 0 -99 -3v23l31 16q25 12 25 59v474q0 59 -8 73.5t-43 16.5z" />
<glyph unicode="M" horiz-adv-x="946" d="M16 -3v30l44 3q34 2 42.5 16.5t8.5 73.5v449q0 59 -8.5 73.5t-42.5 16.5l-44 3v30q48 -3 95 -3t95 3l264 -556l262 556q48 -3 95 -3t93 3v-30l-42 -3q-34 -2 -42.5 -16.5t-8.5 -73.5v-449q0 -59 8 -73.5t43 -16.5l48 -3v-30q-75 3 -151 3q-63 0 -128 -3v30l34 3 q35 3 43 17t8 73v458q-46 -89 -129 -266t-93 -198q-10 -22 -25.5 -60.5t-28.5 -66.5h-20l-279 591v-458q0 -59 8.5 -73.5t42.5 -16.5l44 -3v-30q-60 3 -120 3q-58 0 -116 -3z" />
<glyph unicode="N" horiz-adv-x="831" d="M17 -3v30l44 3q34 2 42.5 16.5t8.5 73.5v449q0 59 -8.5 73.5t-42.5 16.5l-44 3v30q73 -3 120 -3l54 3l481 -594v471q0 59 -8.5 73.5t-42.5 16.5l-44 3v30q58 -3 116 -3q60 0 120 3v-30l-44 -3q-34 -2 -42.5 -16.5t-8.5 -73.5v-552q0 -5 1.5 -18.5t1.5 -18.5l-90 16 l-473 587v-463q0 -59 8.5 -73.5t42.5 -16.5l44 -3v-30q-60 3 -120 3q-57 0 -116 -3z" />
<glyph unicode="O" horiz-adv-x="786" d="M22 341q0 165 104.5 266.5t275.5 101.5q167 0 264.5 -92.5t97.5 -249.5q0 -165 -113 -276t-281 -111q-152 0 -250 102t-98 259zM129 378q0 -160 77.5 -258t203.5 -98q116 0 181.5 83.5t65.5 231.5q0 156 -72 243t-200 87q-123 0 -189.5 -75t-66.5 -214z" />
<glyph unicode="P" horiz-adv-x="604" d="M22 -3v30l48 3q35 2 43 16.5t8 73.5v449q0 55 -9.5 71.5t-43.5 18.5l-45 3v30q91 -3 182 -3q29 0 85 1.5t85 1.5q95 0 150 -41.5t55 -113.5q0 -90 -69.5 -151.5t-172.5 -61.5q-29 0 -58 6l-10 36q33 -10 62 -10q65 0 106.5 43t41.5 110q0 71 -42.5 108t-123.5 37 q-46 0 -98 -12v-522q0 -59 8 -73.5t43 -16.5l48 -3v-30q-73 3 -147 3q-72 0 -146 -3z" />
<glyph unicode="Q" horiz-adv-x="786" d="M22 343q0 164 104 265t272 101t267 -91.5t99 -246.5q0 -108 -52 -199.5t-143 -143.5q-39 -22 -73.5 -32t-94.5 -15q50 -6 121 -37q115 -49 183 -49q12 0 59 6v-21l-84 -56q-64 13 -106 26l-148 46q-46 15 -78 15q-12 0 -28 -8l-59 -32l2 32q88 68 114 78q-161 0 -258 99 t-97 263zM129 375q0 -157 80 -258q76 -94 203 -94q118 0 181.5 81t63.5 231q0 157 -71.5 244.5t-200.5 87.5q-124 0 -190 -75.5t-66 -216.5z" />
<glyph unicode="R" horiz-adv-x="668" d="M22 -3v30l48 3q35 2 43 16.5t8 73.5v449q0 59 -8.5 73.5t-42.5 16.5l-41 3v30q87 -3 173 -3q30 0 89.5 1.5t89.5 1.5q97 0 146 -38.5t49 -111.5q0 -88 -80 -145q-43 -30 -115 -48l227 -296q17 -22 61 -26v-30q-36 3 -72 3q-33 0 -68 -3q-45 59 -129 172t-96 129 q-24 33 -46 57v16h29q87 0 138 40.5t51 109.5q0 64 -42 98.5t-120 34.5q-47 0 -98 -12v-522q0 -59 8 -73.5t43 -16.5l48 -3v-30q-73 3 -147 3q-72 0 -146 -3z" />
<glyph unicode="S" horiz-adv-x="525" d="M24 484q0 98 72.5 161.5t184.5 63.5q75 0 180 -42q-14 -76 -14 -141h-32l-6 57q-2 22 -12 35t-35 26q-41 23 -103 23q-66 0 -108.5 -40.5t-42.5 -103.5q0 -58 37 -86t128 -40q85 -11 124 -23.5t65 -37.5q41 -38 41 -106q0 -109 -84.5 -179.5t-215.5 -70.5q-86 0 -173 38 q8 60 8 113q0 22 -1 40h32l8 -67q4 -31 53.5 -55.5t109.5 -24.5q78 0 128.5 43.5t50.5 111.5q0 56 -38 88q-36 30 -138 45q-130 17 -177 60q-42 39 -42 112z" />
<glyph unicode="T" horiz-adv-x="613" d="M18 692l203 -3h158l216 3q-7 -80 -7 -161h-31l-4 79q-1 33 -40 33h-155q-4 -44 -4 -100v-423q0 -59 8 -73.5t43 -16.5l48 -3v-30q-73 3 -147 3q-72 0 -146 -3v30l48 3q35 2 43 16.5t8 73.5v423q0 55 -4 100h-155q-39 0 -40 -33l-4 -79h-31q0 81 -7 161z" />
<glyph unicode="U" horiz-adv-x="778" d="M12 662v30q74 -3 146 -3q74 0 147 3v-30l-48 -3q-35 -2 -43 -16.5t-8 -73.5v-344q0 -96 47.5 -139.5t151.5 -43.5q109 0 161 50.5t52 156.5v320q0 59 -8.5 73.5t-42.5 16.5l-44 3v30q59 -3 116 -3q60 0 120 3v-30l-44 -3q-34 -2 -42.5 -16.5t-8.5 -73.5v-289 q0 -164 -69 -233q-66 -67 -217 -67q-139 0 -203 54t-64 180v355q0 59 -8 73.5t-43 16.5z" />
<glyph unicode="V" horiz-adv-x="722" d="M8 662v30q66 -3 133 -3t133 3v-30l-56 -3q-19 -1 -26.5 -10t-3.5 -21l197 -507l183 473q25 62 -26 65l-52 3v30q54 -3 108 -3t108 3v-30l-30 -3q-14 -2 -25.5 -17t-28.5 -55l-174 -421q-40 -98 -64 -175h-50q-20 71 -58 165l-188 462q-9 22 -18.5 30.5t-25.5 10.5z" />
<glyph unicode="W" horiz-adv-x="1000" d="M8 662v30q63 -3 126 -3t126 3v-30l-42 -3q-27 -2 -34 -20t1 -46l100 -449l124 315q58 147 90 241h32q6 -24 33 -102l164 -461l132 489q4 16 -6 23.5t-40 9.5l-40 3v30q52 -3 105 -3t105 3v-30l-32 -3q-30 -3 -38 -29l-153 -538l-27 -101h-50q-35 108 -71 206l-125 339 l-174 -442q-23 -57 -36 -103h-50l-142 618q-6 26 -17 37t-33 13z" />
<glyph unicode="X" horiz-adv-x="667" d="M14 -3v30l26 3q16 2 28 12t31 36l195 263l-128 213q-52 87 -92 90l-45 3l-2 26l141 27q26 -14 57 -65l128 -216l185 270h101v-30l-41 -3q-11 -1 -24.5 -14.5t-43.5 -53.5l-154 -208l176 -280q25 -40 38.5 -54.5t27.5 -15.5l30 -3v-30q-36 3 -71 3q-37 0 -74 -3l-184 306 l-202 -306q-25 3 -51 3q-27 0 -52 -3z" />
<glyph unicode="Y" horiz-adv-x="667" d="M9 651v29l120 25q14 0 40.5 -30t50.5 -73l143 -261l103 163q57 90 108 190h80v-15q-96 -115 -188 -253q-44 -66 -58 -101t-14 -76v-129q0 -59 8 -73.5t43 -16.5l48 -3v-30q-73 3 -147 3q-72 0 -146 -3v30l48 3q35 2 43 16.5t8 73.5v142q0 25 -9 40l-124 216 q-32 55 -67.5 91t-60.5 39z" />
<glyph unicode="Z" horiz-adv-x="667" d="M15 -3v28q83 98 97 117l302 388q65 82 86 118h-228q-92 0 -121 -9t-31 -38l-6 -71h-34q3 55 3 81t-3 81h165q45 0 116 -1.5t116 -1.5l156 3l4 -29l-486 -619h273q115 0 142 11t32 61l6 57h34q-6 -66 -6 -176q-153 3 -305 3q-156 0 -312 -3z" />
<glyph unicode="[" horiz-adv-x="333" d="M79 -171q9 39 9 172v540q0 133 -9 172l9 13q59 -2 97 -2l97 2l6 -6v-26l-4 -5h-38q-42 0 -61 -16q-13 -13 -13 -108v-588q0 -95 13 -108q19 -16 61 -16h38l4 -5v-26l-6 -6q-59 2 -97 2l-97 -2z" />
<glyph unicode="\" horiz-adv-x="606" d="M81 726h59l372 -726h-59z" />
<glyph unicode="]" horiz-adv-x="333" d="M45 -152l4 5h38q42 0 61 16q13 13 13 108v588q0 95 -13 108q-19 16 -61 16h-38l-4 5v26l6 6q59 -2 97 -2l97 2l9 -13q-9 -39 -9 -172v-540q0 -133 9 -172l-9 -13q-59 2 -97 2l-97 -2l-6 6v26z" />
<glyph unicode="^" horiz-adv-x="606" d="M51 283l219 406h66l218 -406h-68l-183 338l-184 -338h-68z" />
<glyph unicode="_" d="M0 -75h500v-50h-500v50z" />
<glyph unicode="`" horiz-adv-x="333" d="M31 643q0 14 9 24t22 10q22 0 55 -33l138 -138h-40l-144 90q-25 16 -32.5 25t-7.5 22z" />
<glyph unicode="a" d="M32 111q0 65 45.5 102.5t147.5 56.5l99 18q-2 68 -34 98t-102 30q-35 0 -48.5 -9.5t-28.5 -44.5l-13 -31l-26 7v65l53 32q56 34 121 34q87 0 122.5 -44.5t35.5 -154.5v-183q0 -37 5 -47t23 -11l39 -2v-30q-37 3 -74 3q-39 0 -78 -3l5 85l-124 -86q-11 -8 -42 -8 q-59 0 -92.5 32.5t-33.5 90.5zM118 125q0 -32 22.5 -56t52.5 -24q29 0 69 24t62 55v132q-118 -17 -156 -40q-50 -32 -50 -91z" />
<glyph unicode="b" horiz-adv-x="553" d="M-15 661v28q99 15 156 37l9 -8v-349l55 56q44 44 122 44q79 0 130 -56t51 -143q0 -55 -23 -109.5t-56 -78.5l-100 -72q-31 -22 -86 -22q-74 0 -129 36l-40 -36l-16 6q8 80 8 159v467q0 41 -25 41h-56zM150 93q0 -17 43.5 -35.5t82.5 -18.5q64 0 104.5 53t40.5 137 q0 80 -37 127.5t-100 47.5q-64 0 -108 -46q-26 -29 -26 -50v-215z" />
<glyph unicode="c" horiz-adv-x="444" d="M26 210q0 135 107 202q90 57 164 57q58 0 116 -35q-14 -56 -14 -123h-28l-7 61q-14 19 -45.5 32t-64.5 13q-67 0 -103.5 -43.5t-36.5 -123.5q0 -99 50.5 -158.5t133.5 -59.5q51 0 105 29l10 -15l-21 -32q-8 -11 -53 -22.5t-84 -11.5q-101 0 -165 64.5t-64 165.5z" />
<glyph unicode="d" horiz-adv-x="611" d="M35 216q0 64 25.5 114.5t68.5 73.5l88 46q37 19 76 19q44 0 119 -32v183q0 41 -25 41h-56v28q99 15 156 37l9 -8v-616q0 -48 6 -59.5t31 -12.5l46 -3v-30q-45 3 -91 3q-38 0 -77 -3l5 92l-111 -93q-10 -8 -48 -8q-97 0 -146 42q-76 62 -76 186zM122 249 q0 -89 42.5 -146.5t108.5 -57.5q35 0 69 21.5t55 56.5q10 18 12.5 34t2.5 64v129q0 13 -33 35q-54 37 -113 37q-68 0 -106 -45.5t-38 -127.5z" />
<glyph unicode="e" horiz-adv-x="479" d="M26 219q0 78 27 128t88 85q63 37 121 37q84 0 135 -52t51 -138q0 -7 -2 -35q-88 -14 -181 -14h-146q3 -75 28 -119q45 -78 147 -78q32 0 56.5 9t73.5 38l13 -10l-20 -34q-8 -12 -52 -30q-59 -26 -115 -26t-104.5 22t-77.5 62q-42 57 -42 155zM121 270q65 -6 126 -6l112 3 q0 81 -32 129q-27 40 -77 40q-36 0 -66 -19t-46 -52q-17 -34 -17 -95z" />
<glyph unicode="f" horiz-adv-x="333" d="M23 -3v30l46 3q25 1 31 12.5t6 59.5v283l-69 -4v22l69 31v42q0 96 42 144l58 66q37 42 89 42q17 0 46 -11v-77l-12 -6q-32 28 -69 28q-43 0 -56.5 -28t-13.5 -115v-85q72 0 131 4l-7 -53h-124v-283q0 -48 6 -59.5t31 -12.5l46 -3v-30q-63 3 -125 3t-125 -3z" />
<glyph unicode="g" horiz-adv-x="556" d="M32 -129q0 23 8.5 46.5t19.5 29.5l87 47q-36 10 -51 23.5t-15 34.5q0 20 15 43l79 61q-55 6 -87.5 41.5t-32.5 91.5q0 93 85 142q65 38 136 38q70 0 122 -42l142 4l4 -12l-25 -41h-92q11 -29 11 -54q0 -77 -67 -126q-68 -48 -137 -48q-4 0 -24 2q-6 -6 -12 -11 q-34 -29 -34 -46q0 -39 76 -39h160q52 0 85 -34t33 -88q0 -91 -78.5 -154t-191.5 -63q-95 0 -155.5 43t-60.5 111zM108 -127q0 -55 41 -90t106 -35q79 0 131.5 43t52.5 107q0 49 -33.5 68.5t-118.5 19.5q-90 0 -113 -10q-30 -14 -48 -41.5t-18 -61.5zM139 313 q0 -58 31 -93.5t81 -35.5q46 0 74.5 30.5t28.5 79.5q0 64 -31.5 102.5t-82.5 38.5q-48 0 -74.5 -32t-26.5 -90z" />
<glyph unicode="h" horiz-adv-x="582" d="M6 -3v30l45 3q25 1 31 12.5t6 59.5v518q0 41 -25 41h-56v28q99 15 156 37l9 -8v-340l76 66q29 25 79 25q167 0 167 -174v-193q0 -48 6 -59.5t31 -12.5l41 -3v-30q-42 3 -83 3q-40 0 -79 -3v284q0 58 -30.5 92.5t-80.5 34.5q-46 0 -86.5 -30t-40.5 -64v-212q0 -48 6 -59.5 t31 -12.5l45 -3v-30q-62 3 -124 3t-124 -3z" />
<glyph unicode="i" horiz-adv-x="291" d="M21 -3v30l46 3q25 1 31 12.5t6 59.5v225q0 50 -7 61.5t-37 11.5h-37v28q78 9 156 41l9 -4v-363q0 -48 6 -59.5t31 -12.5l46 -3v-30q-63 3 -125 3t-125 -3zM96 592q0 23 14 36.5t37 13.5q22 0 35.5 -14t13.5 -36t-14 -36t-36 -14t-36 14t-14 36z" />
<glyph unicode="j" horiz-adv-x="234" d="M-40 -245q14 -3 30 -3q85 0 85 241v334q0 50 -7 61.5t-37 11.5h-37v28q78 9 156 41l9 -4v-484q0 -119 -53 -189q-28 -37 -59 -54.5t-75 -20.5zM67 592q0 23 14 36.5t37 13.5q22 0 35.5 -14t13.5 -36t-13.5 -36t-36.5 -14t-36.5 14t-13.5 36z" />
<glyph unicode="k" horiz-adv-x="556" d="M21 -3v30l46 3q25 1 31 12.5t6 59.5v518q0 41 -25 41h-56v28q99 15 156 37l9 -8v-457l73 59q54 43 150 139h100v-30q-47 0 -108 -47l-129 -101q28 -33 64 -68l126 -125q50 -48 85 -48v-23l-96 -29l-265 252v-138q0 -48 6 -59.5t31 -12.5l44 -3v-30q-61 3 -122 3 q-63 0 -126 -3z" />
<glyph unicode="l" horiz-adv-x="291" d="M21 -3v30l46 3q25 1 31 12.5t6 59.5v518q0 41 -25 41h-56v28q99 15 156 37l9 -8v-616q0 -48 6 -59.5t31 -12.5l46 -3v-30q-63 3 -125 3t-125 -3z" />
<glyph unicode="m" horiz-adv-x="883" d="M16 -3v30l46 3q25 1 31 12.5t6 59.5v225q0 50 -7 61.5t-37 11.5h-37v28q78 9 156 41l9 -4v-85l69 64q28 25 83 25q52 0 85 -21.5t57 -71.5l76 68q28 25 82 25q69 0 109.5 -43.5t40.5 -117.5v-206q0 -48 6 -59.5t31 -12.5l47 -3v-30q-45 3 -89 3q-40 0 -79 -3v284 q0 57 -25 92t-66 35q-45 0 -85.5 -30t-40.5 -64v-212q0 -48 6 -59.5t31 -12.5l46 -3v-30q-63 3 -125 3t-125 -3v30l46 3q25 1 31 12.5t6 59.5v179q0 57 -25 92t-66 35q-45 0 -85.5 -30t-40.5 -64v-212q0 -48 6 -59.5t31 -12.5l42 -3v-30q-60 3 -119 3q-64 0 -127 -3z" />
<glyph unicode="n" horiz-adv-x="582" d="M6 -3v30l45 3q25 1 31 12.5t6 59.5v225q0 50 -7 61.5t-37 11.5h-37v28q78 9 156 41l9 -4v-87l76 66q29 25 79 25q167 0 167 -174v-193q0 -48 6 -59.5t31 -12.5l41 -3v-30q-42 3 -83 3q-40 0 -79 -3v284q0 58 -30.5 92.5t-80.5 34.5q-46 0 -86.5 -30t-40.5 -64v-212 q0 -48 6 -59.5t31 -12.5l45 -3v-30q-62 3 -124 3t-124 -3z" />
<glyph unicode="o" horiz-adv-x="546" d="M32 217q0 112 68.5 182t178.5 70q103 0 169 -65.5t66 -166.5q0 -112 -74 -184.5t-190 -72.5q-97 0 -157.5 65.5t-60.5 171.5zM125 251q0 -107 45.5 -172.5t118.5 -65.5q61 0 96.5 50.5t35.5 136.5q0 102 -45.5 169t-114.5 67q-66 0 -101 -47.5t-35 -137.5z" />
<glyph unicode="p" horiz-adv-x="601" d="M8 -251l46 3q25 1 31 12.5t6 59.5v503q0 50 -7 61.5t-37 11.5h-37v28q78 9 156 41l9 -4v-96l82 75q27 25 89 25q87 0 147.5 -57.5t60.5 -140.5q0 -48 -28.5 -110.5t-58.5 -82.5l-114 -74q-26 -16 -71 -16q-65 0 -107 25v-189q0 -48 6 -59.5t31 -12.5l46 -3v-30 q-63 3 -125 3t-125 -3v30zM175 98q56 -59 135 -59q68 0 112.5 55.5t44.5 139.5q0 78 -41.5 124t-112.5 46q-76 0 -120 -56q-18 -24 -18 -42v-208z" />
<glyph unicode="q" horiz-adv-x="560" d="M35 204q0 132 97 194l84 54q28 17 79 17q64 0 137 -33l49 31l19 -11q-23 -51 -23 -138v-494q0 -48 6 -59.5t31 -12.5l46 -3v-30q-62 3 -123 3q-70 0 -139 -3v30l58 3q25 2 31 13.5t6 58.5v242l-104 -66q-19 -12 -51 -12q-93 0 -148 59t-55 157zM122 248q0 -91 41.5 -147 t107.5 -56q34 0 71 20q20 11 35.5 27.5t15.5 27.5v261q-49 41 -119 41q-72 0 -112 -46t-40 -128z" />
<glyph unicode="r" horiz-adv-x="395" d="M21 -3v30l46 3q25 1 31 12.5t6 59.5v225q0 50 -7 61.5t-37 11.5h-37v28q78 9 156 41l9 -4v-103l56 66q34 41 83 41q30 0 47 -11l-9 -120h-21q-23 46 -67 46q-37 0 -63 -32.5t-26 -77.5v-172q0 -49 6.5 -59.5t40.5 -12.5l52 -3v-30q-72 3 -143 3q-62 0 -123 -3z" />
<glyph unicode="s" horiz-adv-x="424" d="M30 4q11 55 11 139h30v-41q0 -37 35 -61t90 -24q53 0 87 26t34 66q0 55 -64 69q-102 22 -148 43q-68 31 -68 103q0 67 50 106t137 39q56 0 130 -25q-4 -38 -5 -113h-28v23q0 35 -34 58.5t-84 23.5q-46 0 -71 -20.5t-25 -57.5q0 -34 23.5 -52t85.5 -30q67 -13 97.5 -24 t49.5 -30q28 -28 28 -74q0 -74 -63 -121t-161 -47q-64 0 -137 24z" />
<glyph unicode="t" horiz-adv-x="326" d="M22 378v21l78 35v70q0 39 -4 79q50 16 85 38l12 -11q-11 -88 -11 -142v-38l137 6l-9 -54h-128v-262q0 -37 13 -53t42 -16q25 0 59 19l13 -17l-48 -53q-10 -12 -53 -12q-58 0 -84 25t-26 81v288z" />
<glyph unicode="u" horiz-adv-x="603" d="M18 400v28q78 9 156 41l9 -4v-295q0 -67 21 -91q25 -30 79 -30q57 0 99 42q37 37 37 73v163q0 50 -7 61.5t-37 11.5h-37v28q78 9 156 41l9 -4v-363q0 -48 6 -59.5t31 -12.5l41 -3v-30q-42 3 -83 3t-83 -3q4 63 4 92l-67 -62q-42 -39 -112 -39q-84 0 -117 45 q-24 33 -24 126v168q0 50 -7 61.5t-37 11.5h-37z" />
<glyph unicode="v" horiz-adv-x="565" d="M6 431v28q59 -3 116 -3q58 0 117 3v-28l-49 -2q-38 -1 -16 -57l119 -288l62 140l42 106q21 51 20 74.5t-25 24.5l-41 2v28q46 -3 94 -3q47 0 94 3v-28l-31 -2q-15 -1 -27 -15t-29 -52l-118 -260q-36 -81 -41 -109h-50l-172 403q-4 10 -5.5 12.5t-4.5 8.5t-5.5 7t-6.5 3 t-9 2z" />
<glyph unicode="w" horiz-adv-x="834" d="M6 431v28q60 -3 119 -3t119 3v-28l-40 -2q-27 -1 -34.5 -14t0.5 -35l84 -276l159 365h23q11 -38 29 -81l115 -290q47 119 98 264q22 64 -32 67l-34 2v28q50 -3 98 -3t98 3v-28l-26 -2q-17 -2 -30.5 -19t-33.5 -68l-137 -349h-46l-136 342q-34 -70 -52 -112l-98 -230h-47 l-102 336q-18 60 -31.5 79t-34.5 21z" />
<glyph unicode="x" horiz-adv-x="516" d="M20 0v27h17q18 0 30 15l149 176l-120 174q-18 25 -50 29l-21 2l-5 26l116 20q41 -41 60 -69l76 -116l124 175h82v-28h-14q-25 0 -34 -11l-142 -166l148 -200q16 -22 35 -24l25 -3v-30q-32 3 -62 3q-31 0 -61 -3l-133 195l-74 -98q-24 -32 -39 -55.5t-18 -30.5l-3 -8h-86z " />
<glyph unicode="y" horiz-adv-x="556" d="M12 431v28q59 -3 116 -3q58 0 116 3v-28l-38 -2q-28 -1 -33 -16.5t9 -48.5l64 -168q26 -66 51 -110l119 292q11 27 3.5 38t-39.5 13l-26 2v28q48 -3 95 -3t95 3v-28l-28 -2q-19 -1 -36.5 -26.5t-47.5 -94.5l-203 -468q-29 -65 -63.5 -94t-84.5 -29q-25 0 -54 15l24 75h13 q26 -23 51 -23q59 0 109 131l23 61l-165 404q-10 26 -21.5 36.5t-30.5 12.5z" />
<glyph unicode="z" d="M16 17l260 317q34 41 65 90h-143q-55 0 -74 -5t-22 -21l-12 -68h-30q7 80 9 132q125 -3 248 -3q69 0 138 3v-30l-314 -397h135q136 0 142 25l18 79h30l-6 -47q-9 -72 -9 -95q-138 3 -276 3q-77 0 -153 -3z" />
<glyph unicode="{" horiz-adv-x="333" d="M58 273q44 15 60 40t16 79v186q0 88 41 122q31 25 114 26q-47 -16 -65 -44t-18 -87v-186q0 -66 -17 -93.5t-67 -42.5q51 -16 67.5 -44t16.5 -101v-173q0 -59 18.5 -88t64.5 -42q-87 1 -117 27q-38 34 -38 131v168q0 60 -14.5 83.5t-61.5 38.5z" />
<glyph unicode="|" horiz-adv-x="606" d="M275 -184v910h56v-910h-56z" />
<glyph unicode="}" horiz-adv-x="333" d="M44 -175q46 13 64.5 42t18.5 88v173q0 73 16.5 101t67.5 44q-50 15 -67 42.5t-17 93.5v186q0 59 -18 87t-65 44q86 -1 117 -28q38 -31 38 -120v-186q0 -54 16 -79t60 -40q-47 -15 -61.5 -38.5t-14.5 -83.5v-168q0 -99 -41 -133q-31 -24 -114 -25z" />
<glyph unicode="~" horiz-adv-x="606" d="M51 209q37 65 69 92.5t70 27.5q39 0 128 -39q75 -33 98 -33q58 0 105 84l34 -27q-62 -113 -138 -113q-33 0 -130 41q-48 20 -63 25t-33 5q-30 0 -53 -19.5t-53 -70.5z" />
<glyph unicode="&#xa1;" horiz-adv-x="278" d="M81 396q0 23 18 40.5t42 17.5q22 0 39 -17.5t17 -40.5t-17.5 -40.5t-39.5 -17.5q-23 0 -41 17.5t-18 40.5zM84 -220q0 38 7 95l29 326v25l28 23l10 -5q6 -89 19 -250.5t16 -200.5l-75 -38h-34v25z" />
<glyph unicode="&#xa2;" d="M61 222q0 143 102 194l80 40q28 14 82 14l27 92h40l-27 -92q39 -1 80 -26q-11 -67 -11 -130h-28l-9 66q-16 18 -50 31l-106 -353q41 -22 85 -22t113 28l9 -11l-20 -33q-72 -34 -145 -34q-31 0 -62 5l-28 -92h-41l32 104q-55 29 -84 71q-39 58 -39 148zM150 251 q0 -50 14 -95q12 -39 44 -72l101 335q-31 5 -39 5q-57 0 -88.5 -45.5t-31.5 -127.5z" />
<glyph unicode="&#xa3;" d="M12 -13v49q14 14 38 27q11 5 15 8.5t9 14.5q34 68 34 200v30l-96 -3l8 45l88 -3v106q0 96 99 168q91 65 173 65q54 0 98 -26q-10 -50 -10 -102q0 -19 1 -34h-33q-1 43 -6.5 63t-20.5 32q-26 20 -71 20q-86 0 -122 -74q-24 -51 -24 -130v-89l182 6l-4 -48l-181 5 q-7 -123 -94 -248q69 9 133 7l157 -6q5 0 13 -0.5t10 -0.5q14 0 20 7.5t9 29.5l7 52h26v-148q-25 -20 -50 -20q-90 0 -179 19q-76 18 -162 23l-45 -45h-22z" />
<glyph unicode="&#xa4;" d="M30 141l49 49q-42 53 -42 123q0 74 42 122l-49 49l47 47l48 -48q54 41 125 41q69 0 125 -41l48 48l47 -47l-49 -49q42 -48 42 -122q0 -70 -42 -123l49 -49l-45 -45l-48 48q-53 -42 -127 -42q-75 0 -127 42l-48 -48zM96 313q0 -63 45 -107.5t109 -44.5t109 44.5t45 108.5 q0 62 -46 106.5t-110 44.5q-62 0 -107 -45t-45 -107z" />
<glyph unicode="&#xa5;" d="M5 650v29l92 21q3 1 10 1q19 0 31.5 -16t28.5 -60q2 -7 4 -12l3 -7.5t1 -3.5l104 -261q66 150 147 353h70v-15q-64 -89 -130 -229l-32 -68h122v-39h-139q-17 -38 -17 -65v-32h156v-39h-156v-87q0 -59 7 -73.5t37 -16.5l41 -3v-30q-65 3 -130 3q-56 0 -113 -3v30l41 3 q30 2 37 16.5t7 73.5v87h-156v39h156v16q0 17 -6 31l-21 50h-129v39h111l-75 160q-32 69 -51.5 89t-50.5 19z" />
<glyph unicode="&#xa6;" horiz-adv-x="606" d="M275 180h56v-364h-56v364zM275 362v364h56v-364h-56z" />
<glyph unicode="&#xa7;" d="M26 243q0 78 83 139q-58 43 -58 103q0 91 69 157.5t163 66.5q68 0 133 -36q-10 -73 -13 -152h-31l-5 87q-57 49 -121 49q-60 0 -98.5 -33.5t-38.5 -86.5q0 -44 41 -72q33 -22 137 -55q100 -32 139 -66.5t39 -90.5q0 -75 -78 -142q60 -33 60 -104q0 -86 -76 -156t-170 -70 q-78 0 -157 44q9 87 12 157h32l5 -90q31 -33 61.5 -46t76.5 -13q70 0 111.5 32.5t41.5 87.5q0 50 -46 83q-28 20 -133 54q-60 19 -89.5 33.5t-53.5 35.5q-36 31 -36 84zM92 282q0 -40 42 -69t147 -60q55 -17 84 -30q34 53 34 90q0 48 -46 77q-36 22 -128 49q-51 15 -90 30 q-43 -39 -43 -87z" />
<glyph unicode="&#xa8;" horiz-adv-x="333" d="M17 592q0 23 14 36.5t37 13.5q22 0 35.5 -14t13.5 -36t-13.5 -36t-36.5 -14t-36.5 14t-13.5 36zM216 592q0 23 14 36.5t37 13.5q22 0 35.5 -14t13.5 -36t-14 -36t-36 -14t-36 14t-14 36z" />
<glyph unicode="&#xa9;" horiz-adv-x="747" d="M31 324q0 143 100.5 243.5t242.5 100.5t243 -101t101 -243t-100.5 -242.5t-243.5 -100.5q-142 0 -242.5 100.5t-100.5 242.5zM71 324q0 -126 88.5 -214.5t214.5 -88.5t215 88.5t89 214.5t-89 215t-215 89t-214.5 -89t-88.5 -215zM177 322q0 111 105 168q61 33 144 33 q66 0 141 -23q-11 -46 -12 -89h-26v43q0 15 -35.5 26.5t-77.5 11.5q-73 0 -117.5 -44t-44.5 -115q0 -77 50.5 -124t134.5 -47q68 0 122 33l10 -10l-19 -31q-62 -30 -136 -30q-107 0 -173 55t-66 143z" />
<glyph unicode="&#xaa;" horiz-adv-x="333" d="M24 361v34h286v-34h-286zM24 493q0 40 30.5 63t95.5 34l64 10q-1 41 -21.5 59t-66.5 18q-16 0 -25.5 -3.5t-13.5 -9t-11 -19.5l-9 -19l-17 4v39l35 20q35 20 76 20q65 0 92 -39q13 -20 13 -80v-102q0 -29 4 -36.5t20 -7.5h20v-18q-33 3 -49 3l-27 -1q-11 0 -23 -2l3 51 l-81 -52q-21 -3 -32 -3q-35 0 -56 19t-21 52zM80 503q0 -20 14.5 -33.5t35.5 -13.5q14 0 33.5 8t29.5 18l21 20v79q-74 -9 -104 -26.5t-30 -51.5z" />
<glyph unicode="&#xab;" d="M50 242v12l176 174l23 -13l-119 -167l119 -162l-23 -15zM251 242v12l176 174l23 -13l-119 -167l119 -162l-23 -15z" />
<glyph unicode="&#xac;" horiz-adv-x="606" d="M40 309v56h526v-201h-56v144z" />
<glyph unicode="&#xad;" horiz-adv-x="333" d="M17 220l27 67h263l5 -5l-30 -67h-260z" />
<glyph unicode="&#xae;" horiz-adv-x="747" d="M31 324q0 143 100.5 243.5t242.5 100.5t243 -101t101 -243t-100.5 -242.5t-243.5 -100.5q-142 0 -242.5 100.5t-100.5 242.5zM71 324q0 -126 88.5 -214.5t214.5 -88.5t215 88.5t89 214.5t-89 215t-215 89t-214.5 -89t-88.5 -215zM181 132v26l31 1q23 3 23 44v241 q0 43 -23 44l-26 2v25q34 -2 104 -2q18 0 53 1t52 1q50 0 86 -23t36 -62q0 -40 -33.5 -67.5t-78.5 -38.5l130 -154q8 -10 32 -12v-26q-23 3 -45 3t-43 -3l-160 195v15h21q42 0 73 21t31 55q0 30 -26 48.5t-62 18.5q-24 0 -51 -5v-277q0 -41 23 -44l30 -1v-26q-44 3 -88 3 t-89 -3z" />
<glyph unicode="&#xaf;" horiz-adv-x="333" d="M11 566v53h312v-53h-312z" />
<glyph unicode="&#xb0;" horiz-adv-x="400" d="M50 539q0 62 43.5 106t105.5 44q63 0 107 -44.5t44 -107.5q0 -60 -44.5 -104t-105.5 -44q-62 0 -106 44t-44 106zM90 539q0 -46 32 -78t78 -32q45 0 77.5 32t32.5 76q0 46 -32.5 79t-78.5 33q-45 0 -77 -32t-32 -78z" />
<glyph unicode="&#xb1;" horiz-adv-x="606" d="M40 0v56h526v-56h-526zM40 278v56h235v235h56v-235h235v-56h-235v-172h-56v172h-235z" />
<glyph unicode="&#xb2;" horiz-adv-x="300" d="M6 271v20l103 108q50 52 71 88t21 69q0 36 -22 57t-59 21q-54 0 -68 -46l-9 -30h-24l11 85q43 43 106 43q58 0 92 -30.5t34 -82.5q0 -34 -16.5 -64t-60.5 -76l-104 -108l203 6q-2 -14 -2 -30t2 -30l-141 2z" />
<glyph unicode="&#xb3;" horiz-adv-x="300" d="M5 369l22 8q16 -44 38 -64.5t65 -20.5q40 0 64.5 26t24.5 70q0 39 -20 60.5t-56 21.5q-22 0 -51 -13l-7 6l8 36q6 0 13 -0.5t11 -1t7 -0.5q30 0 52 23t22 55q0 26 -19.5 45.5t-47.5 19.5q-23 0 -45.5 -12t-26.5 -26l-12 -35h-25l18 78q44 41 100 41q51 0 82.5 -25 t31.5 -65q0 -49 -61 -97q88 -18 88 -91q0 -56 -53 -101.5t-117 -45.5q-28 0 -84 16q-4 37 -22 92z" />
<glyph unicode="&#xb4;" horiz-adv-x="333" d="M78 506l138 138q33 33 55 33q13 0 22 -10t9 -24q0 -13 -7.5 -22t-32.5 -25l-144 -90h-40z" />
<glyph unicode="&#xb5;" horiz-adv-x="603" d="M18 400v28q78 9 156 41l9 -4v-295q0 -67 21 -91q25 -30 79 -30q57 0 99 42q37 37 37 73v163q0 50 -7 61.5t-37 11.5h-37v28q78 9 156 41l9 -4v-363q0 -48 6 -59.5t31 -12.5l41 -3v-30q-42 3 -84 3q-41 0 -82 -3q4 63 4 92l-67 -62q-44 -39 -113 -39q-46 0 -89 20l20 -197 v-3q0 -10 -25 -25.5t-46 -18.5v563q0 50 -7 61.5t-37 11.5h-37z" />
<glyph unicode="&#xb6;" horiz-adv-x="628" d="M39 542q0 68 50 112t128 41l59 -2l145 -4q79 0 168 5v-30l-32 -3q-39 -4 -51 -20.5t-12 -66.5v-601q0 -55 9.5 -71.5t43.5 -18.5l42 -3v-30l-202 3l-202 -3v30l42 3q34 2 43.5 18.5t9.5 71.5v372q-100 7 -166 57q-75 57 -75 140zM150 526q0 -56 33.5 -93t96.5 -51v273 q-6 1 -15 1q-50 0 -82.5 -37t-32.5 -93zM353 -120h68v775h-68v-775z" />
<glyph unicode="&#xb7;" horiz-adv-x="250" d="M67 250q0 24 17 41t41 17t41 -17t17 -41t-17 -41t-41 -17t-41 17t-17 41z" />
<glyph unicode="&#xb8;" horiz-adv-x="333" d="M96 -209l14 31q40 -11 65 -11q54 0 54 43q0 17 -11 28t-29 11q-14 0 -41 -7l-7 6l42 118h34l-25 -85q13 4 27 4q39 0 62 -19t23 -51q0 -39 -33.5 -61.5t-90.5 -22.5q-31 0 -84 16z" />
<glyph unicode="&#xb9;" horiz-adv-x="300" d="M32 631q80 28 140 58l12 -4v-352q0 -22 6.5 -28.5t29.5 -7.5l34 -2v-24q-64 2 -98 2l-102 -2v24l37 2q23 1 29.5 7.5t6.5 28.5v286q0 12 -2 16l-78 -35h-10z" />
<glyph unicode="&#xba;" horiz-adv-x="333" d="M10 355v34h313v-34h-313zM10 558q0 67 45 109t118 42q66 0 108 -40t42 -102q0 -63 -48 -107t-118 -44q-66 0 -106.5 39t-40.5 103zM70 579q0 -63 28.5 -103t74.5 -40q41 0 65.5 31.5t24.5 83.5q0 59 -30 98.5t-74 39.5q-43 0 -66 -28.5t-23 -81.5z" />
<glyph unicode="&#xbb;" d="M50 86l119 162l-119 167l23 13l176 -174v-12l-176 -171zM251 86l119 162l-119 167l23 13l176 -174v-12l-176 -171z" />
<glyph unicode="&#xbc;" horiz-adv-x="750" d="M30 634l161 58l10 -3q-8 -120 -8 -204v-106q0 -51 7.5 -65.5t34.5 -14.5h33v-26q-111 3 -112 3t-106 -3v26h36q27 0 35 15t8 65v238q0 18 -5 19h-3l-80 -34h-7zM156 0l451 689h52l-451 -689h-52zM417 122q19 39 27 50l158 228l49 16l9 -3q-5 -90 -5 -183v-77h19 q15 -2 53 2v-51q-27 3 -70 3v-36q0 -49 44 -49h21v-25q-61 3 -100 3l-107 -3v25h21q33 0 46 10.5t13 38.5v36h-173zM466 153h129v192z" />
<glyph unicode="&#xbd;" horiz-adv-x="750" d="M15 634l161 58l10 -3q-8 -120 -8 -204v-106q0 -51 7.5 -65.5t34.5 -14.5h33v-26q-111 3 -112 3t-106 -3v26h36q27 0 35 15t8 65v238q0 18 -5 19h-3l-80 -34h-7zM122 0l451 689h52l-451 -689h-52zM434 -3v20l108 104q55 53 77.5 89t22.5 71q0 40 -22 61.5t-63 21.5 q-53 0 -71 -47l-13 -35h-24l12 89q45 42 111 42q62 0 100 -31t38 -81q0 -66 -76 -139l-115 -109h122q51 0 94 5q-2 -16 -2 -33q0 -16 2 -28q-96 3 -157 3z" />
<glyph unicode="&#xbe;" horiz-adv-x="750" d="M15 376l31 8q16 -46 40.5 -66t65.5 -20q43 0 69 25.5t26 67.5q0 80 -85 80q-27 0 -49 -13l-10 4l10 43q16 0 18 -1h14q32 0 56 23t24 53q0 26 -21.5 44.5t-52.5 18.5q-32 0 -54.5 -17.5t-30.5 -47.5h-25l19 71q43 40 104 40q55 0 88 -24.5t33 -64.5q0 -26 -16.5 -48.5 t-55.5 -50.5q53 -8 76.5 -29.5t23.5 -61.5q0 -58 -52.5 -101t-123.5 -43q-39 0 -96 16q-2 19 -17 65zM165 0l451 689h52l-451 -689h-52zM425 122q19 39 27 50l158 228l49 16l9 -3q-5 -90 -5 -183v-77h19q15 -2 53 2v-51q-27 3 -70 3v-36q0 -49 44 -49h21v-25q-61 3 -100 3 l-107 -3v25h21q33 0 46 10.5t13 38.5v36h-173zM474 153h129v192z" />
<glyph unicode="&#xbf;" horiz-adv-x="444" d="M49 -91q0 43 23 79t87 95q61 55 77.5 76.5t16.5 46.5q0 22 -22 48l21 14q44 -28 44 -73q0 -26 -15.5 -52t-61.5 -76q-44 -49 -60.5 -78t-16.5 -59q0 -48 34.5 -78.5t88.5 -30.5q70 0 87 42l20 48l29 -8l-38 -113q-71 -35 -132 -35q-77 0 -129.5 44.5t-52.5 109.5z M187 396q0 23 18 40.5t42 17.5q22 0 39 -17.5t17 -40.5t-17.5 -40.5t-39.5 -17.5q-23 0 -41 17.5t-18 40.5z" />
<glyph unicode="&#xc0;" horiz-adv-x="778" d="M15 -3v30l37 3q33 3 54 49l221 502l49 119h32l242 -568q27 -63 40 -82t32 -20l34 -3v-30q-63 3 -127 3q-70 0 -139 -3v30l47 3q41 3 41 20q0 12 -21 64l-46 115h-288l-28 -67q-35 -83 -35 -106q0 -22 48 -26l37 -3v-30q-60 3 -121 3q-55 0 -109 -3zM240 269h253l-126 298 zM255 861q0 11 9.5 19t23.5 8q27 -2 60 -26l149 -113h-43l-156 73q-26 13 -34.5 20.5t-8.5 18.5z" />
<glyph unicode="&#xc1;" horiz-adv-x="778" d="M15 -3v30l37 3q33 3 54 49l221 502l49 119h32l242 -568q27 -63 40 -82t32 -20l34 -3v-30q-63 3 -127 3q-70 0 -139 -3v30l47 3q41 3 41 20q0 12 -21 64l-46 115h-288l-28 -67q-35 -83 -35 -106q0 -22 48 -26l37 -3v-30q-60 3 -121 3q-55 0 -109 -3zM240 269h253l-126 298 zM287 749l149 113q33 24 60 26q14 0 23.5 -8t9.5 -19t-8.5 -18.5t-34.5 -20.5l-156 -73h-43z" />
<glyph unicode="&#xc2;" horiz-adv-x="778" d="M15 -3v30l37 3q33 3 54 49l221 502l49 119h32l242 -568q27 -63 40 -82t32 -20l34 -3v-30q-63 3 -127 3q-70 0 -139 -3v30l47 3q41 3 41 20q0 12 -21 64l-46 115h-288l-28 -67q-35 -83 -35 -106q0 -22 48 -26l37 -3v-30q-60 3 -121 3q-55 0 -109 -3zM223 752l134 135h68 l135 -135h-38l-131 84l-131 -84h-37zM240 269h253l-126 298z" />
<glyph unicode="&#xc3;" horiz-adv-x="778" d="M15 -3v30l37 3q33 3 54 49l221 502l49 119h32l242 -568q27 -63 40 -82t32 -20l34 -3v-30q-63 3 -127 3q-70 0 -139 -3v30l47 3q41 3 41 20q0 12 -21 64l-46 115h-288l-28 -67q-35 -83 -35 -106q0 -22 48 -26l37 -3v-30q-60 3 -121 3q-55 0 -109 -3zM228 767 q22 100 106 100q28 0 89 -30q33 -15 47 -15q39 0 59 50h29q-3 -44 -34.5 -74.5t-74.5 -30.5q-30 0 -68 19q-53 26 -71 26q-34 0 -53 -45h-29zM240 269h253l-126 298z" />
<glyph unicode="&#xc4;" horiz-adv-x="778" d="M15 -3v30l37 3q33 3 54 49l221 502l49 119h32l242 -568q27 -63 40 -82t32 -20l34 -3v-30q-63 3 -127 3q-70 0 -139 -3v30l47 3q41 3 41 20q0 12 -21 64l-46 115h-288l-28 -67q-35 -83 -35 -106q0 -22 48 -26l37 -3v-30q-60 3 -121 3q-55 0 -109 -3zM240 269h253l-126 298 zM243 819q0 23 14 36.5t37 13.5q22 0 35.5 -14t13.5 -36q0 -23 -13.5 -36.5t-36.5 -13.5t-36.5 13.5t-13.5 36.5zM442 819q0 23 14 36.5t37 13.5q22 0 35.5 -14t13.5 -36q0 -23 -14 -36.5t-36 -13.5t-36 13.5t-14 36.5z" />
<glyph unicode="&#xc5;" horiz-adv-x="778" d="M15 -3v30l37 3q33 3 54 49l221 502l49 119h32l242 -568q27 -63 40 -82t32 -20l34 -3v-30q-63 3 -127 3q-70 0 -139 -3v30l47 3q41 3 41 20q0 12 -21 64l-46 115h-288l-28 -67q-35 -83 -35 -106q0 -22 48 -26l37 -3v-30q-60 3 -121 3q-55 0 -109 -3zM240 269h253l-126 298 zM293 840q0 41 29.5 70t72.5 29q40 0 69 -29.5t29 -70.5q0 -42 -29.5 -71t-70.5 -29q-42 0 -71 29t-29 72zM331 840q0 -30 16.5 -47.5t45.5 -17.5q28 0 45 17.5t17 46.5q0 28 -17 46t-44 18q-28 0 -45.5 -17.5t-17.5 -45.5z" />
<glyph unicode="&#xc6;" horiz-adv-x="944" d="M-10 -3v30l34 5q23 3 52 55l289 512q19 33 19 47q0 9 -54 13l-44 3v30q129 -3 257 -3q113 0 226 3l123 -3q-16 -64 -16 -152h-35v65q0 17 -4.5 23t-22.5 11q-56 14 -145 14q-82 0 -117 -8v-267q59 -4 158 -4q37 0 53.5 7t18.5 31l5 52h30q-3 -59 -3 -116q0 -55 3 -111 h-30l-5 59q-2 23 -18.5 30t-54.5 7l-157 -3v-280q39 -8 99 -8q148 0 184 12q24 8 38 113h35q-16 -83 -16 -164l-168 -3q-123 3 -247 3q-35 0 -69 -3v23l28 16q26 15 26 84v122q-62 3 -123 3t-121 -3l-64 -114q-28 -50 -28 -69q0 -24 53 -29l36 -3v-30q-49 3 -98 3 q-64 0 -127 -3zM242 283h220v372h-12z" />
<glyph unicode="&#xc7;" horiz-adv-x="709" d="M22 342q0 206 174 307q105 60 237 60q105 0 231 -41q-18 -83 -19 -152h-31v72q0 29 -62.5 54t-136.5 25q-130 0 -208 -83.5t-78 -222.5q0 -148 89 -237.5t236 -89.5q114 0 207 60l9 -10l-28 -50q-104 -54 -227 -54h-14l-21 -55q13 4 26 4q40 0 63 -19t23 -51 q0 -39 -33 -61.5t-91 -22.5q-34 0 -84 16l14 31q39 -11 66 -11q53 0 53 43q0 17 -11 28t-29 11q-14 0 -41 -7l-7 6l39 90q-163 18 -254.5 113t-91.5 247z" />
<glyph unicode="&#xc8;" horiz-adv-x="611" d="M22 662v30q88 -3 178 -3q116 0 232 3l124 -3q-16 -64 -16 -152h-35v65q0 17 -4.5 23t-22.5 11q-50 14 -145 14q-82 0 -117 -8v-267q59 -4 160 -4q35 0 49.5 7t20.5 31l5 52h30q-3 -59 -3 -116q0 -55 3 -111h-30q-1 37 -5 59q-5 23 -19.5 30t-50.5 7l-160 -3v-280 q39 -8 99 -8q148 0 184 12q23 8 33 79l5 34h35q-16 -83 -16 -164l-167 -3q-115 3 -232 3q-61 0 -123 -3v30l36 3q35 3 43 17t8 73v449q0 59 -8 73.5t-43 16.5zM168 861q0 11 9.5 19t23.5 8q27 -2 60 -26l149 -113h-43l-156 73q-26 13 -34.5 20.5t-8.5 18.5z" />
<glyph unicode="&#xc9;" horiz-adv-x="611" d="M22 662v30q88 -3 178 -3q116 0 232 3l124 -3q-16 -64 -16 -152h-35v65q0 17 -4.5 23t-22.5 11q-50 14 -145 14q-82 0 -117 -8v-267q59 -4 160 -4q35 0 49.5 7t20.5 31l5 52h30q-3 -59 -3 -116q0 -55 3 -111h-30q-1 37 -5 59q-5 23 -19.5 30t-50.5 7l-160 -3v-280 q39 -8 99 -8q148 0 184 12q23 8 33 79l5 34h35q-16 -83 -16 -164l-167 -3q-115 3 -232 3q-61 0 -123 -3v30l36 3q35 3 43 17t8 73v449q0 59 -8 73.5t-43 16.5zM201 749l149 113q33 24 60 26q14 0 23.5 -8t9.5 -19t-8.5 -18.5t-34.5 -20.5l-156 -73h-43z" />
<glyph unicode="&#xca;" horiz-adv-x="611" d="M22 662v30q88 -3 178 -3q116 0 232 3l124 -3q-16 -64 -16 -152h-35v65q0 17 -4.5 23t-22.5 11q-50 14 -145 14q-82 0 -117 -8v-267q59 -4 160 -4q35 0 49.5 7t20.5 31l5 52h30q-3 -59 -3 -116q0 -55 3 -111h-30q-1 37 -5 59q-5 23 -19.5 30t-50.5 7l-160 -3v-280 q39 -8 99 -8q148 0 184 12q23 8 33 79l5 34h35q-16 -83 -16 -164l-167 -3q-115 3 -232 3q-61 0 -123 -3v30l36 3q35 3 43 17t8 73v449q0 59 -8 73.5t-43 16.5zM137 752l134 135h68l135 -135h-38l-131 84l-131 -84h-37z" />
<glyph unicode="&#xcb;" horiz-adv-x="611" d="M22 662v30q88 -3 178 -3q116 0 232 3l124 -3q-16 -64 -16 -152h-35v65q0 17 -4.5 23t-22.5 11q-50 14 -145 14q-82 0 -117 -8v-267q59 -4 160 -4q35 0 49.5 7t20.5 31l5 52h30q-3 -59 -3 -116q0 -55 3 -111h-30q-1 37 -5 59q-5 23 -19.5 30t-50.5 7l-160 -3v-280 q39 -8 99 -8q148 0 184 12q23 8 33 79l5 34h35q-16 -83 -16 -164l-167 -3q-115 3 -232 3q-61 0 -123 -3v30l36 3q35 3 43 17t8 73v449q0 59 -8 73.5t-43 16.5zM156 819q0 23 14 36.5t37 13.5q22 0 35.5 -14t13.5 -36q0 -23 -14 -36.5t-36 -13.5t-36 13.5t-14 36.5zM355 819 q0 23 14 36.5t37 13.5q22 0 35.5 -14t13.5 -36q0 -23 -13.5 -36.5t-36.5 -13.5t-36.5 13.5t-13.5 36.5z" />
<glyph unicode="&#xcc;" horiz-adv-x="337" d="M22 -3v30l48 3q35 2 43 16.5t8 73.5v449q0 59 -8 73.5t-43 16.5l-48 3v30q74 -3 146 -3q74 0 147 3v-30l-48 -3q-35 -2 -43 -16.5t-8 -73.5v-449q0 -59 8 -73.5t43 -16.5l48 -3v-30q-73 3 -147 3q-72 0 -146 -3zM32 861q0 11 9.5 19t23.5 8q27 -2 60 -26l149 -113h-43 l-156 73q-26 13 -34.5 20.5t-8.5 18.5z" />
<glyph unicode="&#xcd;" horiz-adv-x="337" d="M22 -3v30l48 3q35 2 43 16.5t8 73.5v449q0 59 -8 73.5t-43 16.5l-48 3v30q74 -3 146 -3q74 0 147 3v-30l-48 -3q-35 -2 -43 -16.5t-8 -73.5v-449q0 -59 8 -73.5t43 -16.5l48 -3v-30q-73 3 -147 3q-72 0 -146 -3zM64 749l149 113q33 24 60 26q14 0 23.5 -8t9.5 -19 t-8.5 -18.5t-34.5 -20.5l-156 -73h-43z" />
<glyph unicode="&#xce;" horiz-adv-x="337" d="M0 752l134 135h68l135 -135h-38l-131 84l-131 -84h-37zM22 -3v30l48 3q35 2 43 16.5t8 73.5v449q0 59 -8 73.5t-43 16.5l-48 3v30q74 -3 146 -3q74 0 147 3v-30l-48 -3q-35 -2 -43 -16.5t-8 -73.5v-449q0 -59 8 -73.5t43 -16.5l48 -3v-30q-73 3 -147 3q-72 0 -146 -3z " />
<glyph unicode="&#xcf;" horiz-adv-x="337" d="M20 819q0 23 14 36.5t37 13.5q22 0 35.5 -14t13.5 -36q0 -23 -14 -36.5t-36 -13.5t-36 13.5t-14 36.5zM22 -3v30l48 3q35 2 43 16.5t8 73.5v449q0 59 -8 73.5t-43 16.5l-48 3v30q74 -3 146 -3q74 0 147 3v-30l-48 -3q-35 -2 -43 -16.5t-8 -73.5v-449q0 -59 8 -73.5 t43 -16.5l48 -3v-30q-73 3 -147 3q-72 0 -146 -3zM219 819q0 23 14 36.5t37 13.5q22 0 35.5 -14t13.5 -36q0 -23 -13.5 -36.5t-36.5 -13.5t-36.5 13.5t-13.5 36.5z" />
<glyph unicode="&#xd0;" horiz-adv-x="774" d="M14 346v36h99v187q0 59 -8.5 73.5t-42.5 16.5l-40 3v30q103 -3 206 -3q29 0 87 1.5t87 1.5q158 0 253.5 -84t95.5 -223q0 -80 -31 -156.5t-85 -129.5q-103 -102 -294 -102q-24 0 -72.5 1.5t-72.5 1.5q-70 0 -139 -3v23l31 16q25 12 25 59v251h-99zM208 49q35 -8 103 -8 q85 0 136.5 14.5t96.5 51.5q100 82 100 252q0 149 -71 220q-73 73 -254 73q-69 0 -111 -8v-262h184v-36h-184v-297z" />
<glyph unicode="&#xd1;" horiz-adv-x="831" d="M17 -3v30l44 3q34 2 42.5 16.5t8.5 73.5v449q0 59 -8.5 73.5t-42.5 16.5l-44 3v30q73 -3 120 -3l54 3l481 -594v471q0 59 -8.5 73.5t-42.5 16.5l-44 3v30q58 -3 116 -3q60 0 120 3v-30l-44 -3q-34 -2 -42.5 -16.5t-8.5 -73.5v-552q0 -5 1.5 -18.5t1.5 -18.5l-90 16 l-473 587v-463q0 -59 8.5 -73.5t42.5 -16.5l44 -3v-30q-60 3 -120 3q-57 0 -116 -3zM251 767q22 100 106 100q28 0 89 -30q33 -15 47 -15q39 0 59 50h29q-3 -44 -34.5 -74.5t-74.5 -30.5q-30 0 -68 19q-53 26 -71 26q-34 0 -53 -45h-29z" />
<glyph unicode="&#xd2;" horiz-adv-x="786" d="M22 341q0 165 104.5 266.5t275.5 101.5q167 0 264.5 -92.5t97.5 -249.5q0 -165 -113 -276t-281 -111q-152 0 -250 102t-98 259zM129 378q0 -160 77.5 -258t203.5 -98q116 0 181.5 83.5t65.5 231.5q0 156 -72 243t-200 87q-123 0 -189.5 -75t-66.5 -214zM265 861 q0 11 9.5 19t23.5 8q27 -2 60 -26l149 -113h-43l-156 73q-26 13 -34.5 20.5t-8.5 18.5z" />
<glyph unicode="&#xd3;" horiz-adv-x="786" d="M22 341q0 165 104.5 266.5t275.5 101.5q167 0 264.5 -92.5t97.5 -249.5q0 -165 -113 -276t-281 -111q-152 0 -250 102t-98 259zM129 378q0 -160 77.5 -258t203.5 -98q116 0 181.5 83.5t65.5 231.5q0 156 -72 243t-200 87q-123 0 -189.5 -75t-66.5 -214zM297 749l149 113 q33 24 60 26q14 0 23.5 -8t9.5 -19t-8.5 -18.5t-34.5 -20.5l-156 -73h-43z" />
<glyph unicode="&#xd4;" horiz-adv-x="786" d="M22 341q0 165 104.5 266.5t275.5 101.5q167 0 264.5 -92.5t97.5 -249.5q0 -165 -113 -276t-281 -111q-152 0 -250 102t-98 259zM129 378q0 -160 77.5 -258t203.5 -98q116 0 181.5 83.5t65.5 231.5q0 156 -72 243t-200 87q-123 0 -189.5 -75t-66.5 -214zM233 752l134 135 h68l135 -135h-38l-131 84l-131 -84h-37z" />
<glyph unicode="&#xd5;" horiz-adv-x="786" d="M22 341q0 165 104.5 266.5t275.5 101.5q167 0 264.5 -92.5t97.5 -249.5q0 -165 -113 -276t-281 -111q-152 0 -250 102t-98 259zM129 378q0 -160 77.5 -258t203.5 -98q116 0 181.5 83.5t65.5 231.5q0 156 -72 243t-200 87q-123 0 -189.5 -75t-66.5 -214zM238 767 q22 100 106 100q28 0 89 -30q33 -15 47 -15q39 0 59 50h29q-3 -44 -34.5 -74.5t-74.5 -30.5q-30 0 -68 19q-53 26 -71 26q-34 0 -53 -45h-29z" />
<glyph unicode="&#xd6;" horiz-adv-x="786" d="M22 341q0 165 104.5 266.5t275.5 101.5q167 0 264.5 -92.5t97.5 -249.5q0 -165 -113 -276t-281 -111q-152 0 -250 102t-98 259zM129 378q0 -160 77.5 -258t203.5 -98q116 0 181.5 83.5t65.5 231.5q0 156 -72 243t-200 87q-123 0 -189.5 -75t-66.5 -214zM253 819 q0 23 14 36.5t37 13.5q22 0 35.5 -14t13.5 -36q0 -23 -13.5 -36.5t-36.5 -13.5t-36.5 13.5t-13.5 36.5zM452 819q0 23 14 36.5t37 13.5q22 0 35.5 -14t13.5 -36q0 -23 -14 -36.5t-36 -13.5t-36 13.5t-14 36.5z" />
<glyph unicode="&#xd7;" horiz-adv-x="606" d="M97 84l166 166l-166 166l40 40l166 -166l166 166l40 -40l-166 -166l166 -166l-40 -40l-166 166l-166 -166z" />
<glyph unicode="&#xd8;" horiz-adv-x="833" d="M30 11l94 88q-36 47 -51 87q-28 72 -28 156q0 166 104 266.5t275 100.5q100 0 180 -36q34 -15 75 -47l86 83l32 -30l-88 -83q78 -99 78 -226q0 -166 -112.5 -278t-279.5 -112q-91 0 -166 36q-29 14 -75 51l-91 -85zM152 375q0 -117 44 -208l420 403q-30 33 -52 49t-57 29 q-50 19 -104 19q-120 0 -185.5 -76t-65.5 -216zM219 131q44 -58 94 -83.5t118 -25.5q119 0 184 83.5t65 234.5q0 108 -39 191z" />
<glyph unicode="&#xd9;" horiz-adv-x="778" d="M12 662v30q74 -3 146 -3q74 0 147 3v-30l-48 -3q-35 -2 -43 -16.5t-8 -73.5v-344q0 -96 47.5 -139.5t151.5 -43.5q109 0 161 50.5t52 156.5v320q0 59 -8.5 73.5t-42.5 16.5l-44 3v30q59 -3 116 -3q60 0 120 3v-30l-44 -3q-34 -2 -42.5 -16.5t-8.5 -73.5v-289 q0 -164 -69 -233q-66 -67 -217 -67q-139 0 -203 54t-64 180v355q0 59 -8 73.5t-43 16.5zM275 861q0 11 9.5 19t23.5 8q27 -2 60 -26l149 -113h-43l-156 73q-26 13 -34.5 20.5t-8.5 18.5z" />
<glyph unicode="&#xda;" horiz-adv-x="778" d="M12 662v30q74 -3 146 -3q74 0 147 3v-30l-48 -3q-35 -2 -43 -16.5t-8 -73.5v-344q0 -96 47.5 -139.5t151.5 -43.5q109 0 161 50.5t52 156.5v320q0 59 -8.5 73.5t-42.5 16.5l-44 3v30q59 -3 116 -3q60 0 120 3v-30l-44 -3q-34 -2 -42.5 -16.5t-8.5 -73.5v-289 q0 -164 -69 -233q-66 -67 -217 -67q-139 0 -203 54t-64 180v355q0 59 -8 73.5t-43 16.5zM307 749l149 113q33 24 60 26q14 0 23.5 -8t9.5 -19t-8.5 -18.5t-34.5 -20.5l-156 -73h-43z" />
<glyph unicode="&#xdb;" horiz-adv-x="778" d="M12 662v30q74 -3 146 -3q74 0 147 3v-30l-48 -3q-35 -2 -43 -16.5t-8 -73.5v-344q0 -96 47.5 -139.5t151.5 -43.5q109 0 161 50.5t52 156.5v320q0 59 -8.5 73.5t-42.5 16.5l-44 3v30q59 -3 116 -3q60 0 120 3v-30l-44 -3q-34 -2 -42.5 -16.5t-8.5 -73.5v-289 q0 -164 -69 -233q-66 -67 -217 -67q-139 0 -203 54t-64 180v355q0 59 -8 73.5t-43 16.5zM243 752l134 135h68l135 -135h-38l-131 84l-131 -84h-37z" />
<glyph unicode="&#xdc;" horiz-adv-x="778" d="M12 662v30q74 -3 146 -3q74 0 147 3v-30l-48 -3q-35 -2 -43 -16.5t-8 -73.5v-344q0 -96 47.5 -139.5t151.5 -43.5q109 0 161 50.5t52 156.5v320q0 59 -8.5 73.5t-42.5 16.5l-44 3v30q59 -3 116 -3q60 0 120 3v-30l-44 -3q-34 -2 -42.5 -16.5t-8.5 -73.5v-289 q0 -164 -69 -233q-66 -67 -217 -67q-139 0 -203 54t-64 180v355q0 59 -8 73.5t-43 16.5zM263 819q0 23 14 36.5t37 13.5q22 0 35.5 -14t13.5 -36q0 -23 -13.5 -36.5t-36.5 -13.5t-36.5 13.5t-13.5 36.5zM462 819q0 23 14 36.5t37 13.5q22 0 35.5 -14t13.5 -36 q0 -23 -14 -36.5t-36 -13.5t-36 13.5t-14 36.5z" />
<glyph unicode="&#xdd;" horiz-adv-x="667" d="M9 651v29l120 25q14 0 40.5 -30t50.5 -73l143 -261l103 163q57 90 108 190h80v-15q-96 -115 -188 -253q-44 -66 -58 -101t-14 -76v-129q0 -59 8 -73.5t43 -16.5l48 -3v-30q-73 3 -147 3q-72 0 -146 -3v30l48 3q35 2 43 16.5t8 73.5v142q0 25 -9 40l-124 216 q-32 55 -67.5 91t-60.5 39zM242 749l149 113q33 24 60 26q14 0 23.5 -8t9.5 -19t-8.5 -18.5t-34.5 -20.5l-156 -73h-43z" />
<glyph unicode="&#xde;" horiz-adv-x="604" d="M32 -3v30l48 3q35 2 43 16.5t8 73.5v449q0 59 -8 73.5t-43 16.5l-48 3v30q74 -3 146 -3q74 0 147 3v-30l-48 -3q-35 -2 -43 -16.5t-8 -73.5v-27q17 -2 46 -2q96 1 99 1q93 0 148 -41.5t55 -112.5q0 -88 -64.5 -149.5t-155.5 -61.5q-36 0 -58 6l-11 37q33 -9 62 -9 q53 0 90 42.5t37 104.5q0 143 -170 143q-39 0 -78 -9v-371q0 -59 8 -73.5t43 -16.5l48 -3v-30q-73 3 -147 3q-72 0 -146 -3z" />
<glyph unicode="&#xdf;" horiz-adv-x="556" d="M23 -3v30l36 3q25 2 31 13.5t6 58.5v283h-69v14l69 35v66q0 54 46 118q38 51 93 82t110 31q67 0 109 -40t42 -104q0 -82 -44 -196q-41 23 -71 23q-24 0 -38.5 -12t-14.5 -31q0 -21 19.5 -39.5t66.5 -42.5q56 -28 80.5 -57.5t24.5 -68.5q0 -31 -10.5 -60t-26.5 -41 l-58 -44q-34 -27 -79 -27q-47 0 -93 20v-14q-57 3 -115 3q-57 0 -114 -3zM180 107q0 -44 10.5 -62t35.5 -18h28l21 85h27v-46q36 -32 71 -32t58 21.5t23 54.5q0 35 -21 60t-72 52q-56 29 -74.5 50t-18.5 55q0 36 19 56l39 43q32 35 103 35q11 44 11 82q0 66 -35 104.5 t-96 38.5q-70 0 -99.5 -50.5t-29.5 -169.5v-359z" />
<glyph unicode="&#xe0;" d="M32 111q0 65 45.5 102.5t147.5 56.5l99 18q-2 68 -34 98t-102 30q-35 0 -48.5 -9.5t-28.5 -44.5l-13 -31l-26 7v65l53 32q56 34 121 34q87 0 122.5 -44.5t35.5 -154.5v-183q0 -37 5 -47t23 -11l39 -2v-30q-37 3 -74 3q-39 0 -78 -3l5 85l-124 -86q-11 -8 -42 -8 q-59 0 -92.5 32.5t-33.5 90.5zM111 643q0 14 9 24t22 10q22 0 55 -33l138 -138h-40l-144 90q-25 16 -32.5 25t-7.5 22zM118 125q0 -32 22.5 -56t52.5 -24q29 0 69 24t62 55v132q-118 -17 -156 -40q-50 -32 -50 -91z" />
<glyph unicode="&#xe1;" d="M32 111q0 65 45.5 102.5t147.5 56.5l99 18q-2 68 -34 98t-102 30q-35 0 -48.5 -9.5t-28.5 -44.5l-13 -31l-26 7v65l53 32q56 34 121 34q87 0 122.5 -44.5t35.5 -154.5v-183q0 -37 5 -47t23 -11l39 -2v-30q-37 3 -74 3q-39 0 -78 -3l5 85l-124 -86q-11 -8 -42 -8 q-59 0 -92.5 32.5t-33.5 90.5zM118 125q0 -32 22.5 -56t52.5 -24q29 0 69 24t62 55v132q-118 -17 -156 -40q-50 -32 -50 -91zM157 506l138 138q33 33 55 33q13 0 22 -10t9 -24q0 -13 -7.5 -22t-32.5 -25l-144 -90h-40z" />
<glyph unicode="&#xe2;" d="M32 111q0 65 45.5 102.5t147.5 56.5l99 18q-2 68 -34 98t-102 30q-35 0 -48.5 -9.5t-28.5 -44.5l-13 -31l-26 7v65l53 32q56 34 121 34q87 0 122.5 -44.5t35.5 -154.5v-183q0 -37 5 -47t23 -11l39 -2v-30q-37 3 -74 3q-39 0 -78 -3l5 85l-124 -86q-11 -8 -42 -8 q-59 0 -92.5 32.5t-33.5 90.5zM90 509l125 167h62l125 -167h-35l-121 103l-121 -103h-35zM118 125q0 -32 22.5 -56t52.5 -24q29 0 69 24t62 55v132q-118 -17 -156 -40q-50 -32 -50 -91z" />
<glyph unicode="&#xe3;" d="M32 111q0 65 45.5 102.5t147.5 56.5l99 18q-2 68 -34 98t-102 30q-35 0 -48.5 -9.5t-28.5 -44.5l-13 -31l-26 7v65l53 32q56 34 121 34q87 0 122.5 -44.5t35.5 -154.5v-183q0 -37 5 -47t23 -11l39 -2v-30q-37 3 -74 3q-39 0 -78 -3l5 85l-124 -86q-11 -8 -42 -8 q-59 0 -92.5 32.5t-33.5 90.5zM81 540q22 100 106 100q28 0 89 -30q33 -15 47 -15q39 0 59 50h29q-3 -44 -34.5 -74.5t-74.5 -30.5q-30 0 -68 19q-53 26 -71 26q-34 0 -53 -45h-29zM118 125q0 -32 22.5 -56t52.5 -24q29 0 69 24t62 55v132q-118 -17 -156 -40 q-50 -32 -50 -91z" />
<glyph unicode="&#xe4;" d="M32 111q0 65 45.5 102.5t147.5 56.5l99 18q-2 68 -34 98t-102 30q-35 0 -48.5 -9.5t-28.5 -44.5l-13 -31l-26 7v65l53 32q56 34 121 34q87 0 122.5 -44.5t35.5 -154.5v-183q0 -37 5 -47t23 -11l39 -2v-30q-37 3 -74 3q-39 0 -78 -3l5 85l-124 -86q-11 -8 -42 -8 q-59 0 -92.5 32.5t-33.5 90.5zM96 592q0 23 14 36.5t37 13.5q22 0 35.5 -14t13.5 -36t-14 -36t-36 -14t-36 14t-14 36zM118 125q0 -32 22.5 -56t52.5 -24q29 0 69 24t62 55v132q-118 -17 -156 -40q-50 -32 -50 -91zM295 592q0 23 14 36.5t37 13.5q22 0 35.5 -14t13.5 -36 t-13.5 -36t-36.5 -14t-36.5 14t-13.5 36z" />
<glyph unicode="&#xe5;" d="M32 111q0 65 45.5 102.5t147.5 56.5l99 18q-2 68 -34 98t-102 30q-35 0 -48.5 -9.5t-28.5 -44.5l-13 -31l-26 7v65l53 32q56 34 121 34q87 0 122.5 -44.5t35.5 -154.5v-183q0 -37 5 -47t23 -11l39 -2v-30q-37 3 -74 3q-39 0 -78 -3l5 85l-124 -86q-11 -8 -42 -8 q-59 0 -92.5 32.5t-33.5 90.5zM118 125q0 -32 22.5 -56t52.5 -24q29 0 69 24t62 55v132q-118 -17 -156 -40q-50 -32 -50 -91zM146 593q0 41 29.5 70t72.5 29q40 0 69 -29.5t29 -70.5q0 -42 -29.5 -71t-70.5 -29q-42 0 -71 29t-29 72zM184 593q0 -30 16.5 -47.5t45.5 -17.5 q28 0 45 17.5t17 46.5q0 28 -17 46t-44 18q-29 0 -46 -17t-17 -46z" />
<glyph unicode="&#xe6;" horiz-adv-x="758" d="M30 107q0 66 41 98q23 17 78.5 32t118.5 22l56 6q-4 76 -27 109q-29 42 -86 42q-26 0 -54 -8.5t-37 -18.5q-14 -15 -25 -58l-26 6v62l98 53q31 17 71 17q91 0 146 -71q49 40 83.5 55.5t77.5 15.5q52 0 95.5 -23t67.5 -64q24 -42 24 -104q0 -6 -2 -34q-88 -14 -181 -14 h-146q3 -77 27 -119q44 -78 149 -78q33 0 59.5 9.5t71.5 37.5l14 -10l-20 -34q-7 -11 -50 -29q-62 -27 -118 -27q-87 0 -148 53q-25 23 -44 56l-123 -96q-16 -13 -55 -13q-62 0 -99 34.5t-37 92.5zM116 122q0 -36 22 -56.5t62 -20.5q35 0 63 16t61 56v116q-86 -10 -134 -23 q-44 -13 -56 -29q-18 -26 -18 -59zM405 270q76 -7 127 -6l117 3q0 67 -23 110q-32 59 -87 59q-66 0 -104 -51q-27 -38 -30 -115z" />
<glyph unicode="&#xe7;" horiz-adv-x="444" d="M26 210q0 136 109 204q89 55 162 55q58 0 116 -35q-14 -56 -14 -123h-28l-7 61q-13 19 -44.5 32t-65.5 13q-67 0 -103.5 -43.5t-36.5 -123.5q0 -99 50.5 -158.5t133.5 -59.5q50 0 105 29l10 -15l-21 -32q-7 -11 -48.5 -22t-74.5 -12l-21 -55q13 4 26 4q40 0 63 -19 t23 -51q0 -39 -33 -61.5t-91 -22.5q-34 0 -84 16l14 31q39 -11 66 -11q53 0 53 43q0 17 -11 28t-29 11q-14 0 -41 -7l-7 6l38 89q-94 8 -151.5 70.5t-57.5 158.5z" />
<glyph unicode="&#xe8;" horiz-adv-x="479" d="M26 219q0 78 27 128t88 85q63 37 121 37q84 0 135 -52t51 -138q0 -7 -2 -35q-88 -14 -181 -14h-146q3 -75 28 -119q45 -78 147 -78q32 0 56.5 9t73.5 38l13 -10l-20 -34q-8 -12 -52 -30q-59 -26 -115 -26t-104.5 22t-77.5 62q-42 57 -42 155zM121 270q65 -6 126 -6l112 3 q0 81 -32 129q-27 40 -77 40q-36 0 -66 -19t-46 -52q-17 -34 -17 -95zM127 643q0 14 9 24t22 10q22 0 55 -33l138 -138h-40l-144 90q-25 16 -32.5 25t-7.5 22z" />
<glyph unicode="&#xe9;" horiz-adv-x="479" d="M26 219q0 78 27 128t88 85q63 37 121 37q84 0 135 -52t51 -138q0 -7 -2 -35q-88 -14 -181 -14h-146q3 -75 28 -119q45 -78 147 -78q32 0 56.5 9t73.5 38l13 -10l-20 -34q-8 -12 -52 -30q-59 -26 -115 -26t-104.5 22t-77.5 62q-42 57 -42 155zM121 270q65 -6 126 -6l112 3 q0 81 -32 129q-27 40 -77 40q-36 0 -66 -19t-46 -52q-17 -34 -17 -95zM173 506l138 138q33 33 55 33q13 0 22 -10t9 -24q0 -13 -7.5 -22t-32.5 -25l-144 -90h-40z" />
<glyph unicode="&#xea;" horiz-adv-x="479" d="M26 219q0 78 27 128t88 85q63 37 121 37q84 0 135 -52t51 -138q0 -7 -2 -35q-88 -14 -181 -14h-146q3 -75 28 -119q45 -78 147 -78q32 0 56.5 9t73.5 38l13 -10l-20 -34q-8 -12 -52 -30q-59 -26 -115 -26t-104.5 22t-77.5 62q-42 57 -42 155zM106 509l125 167h62 l125 -167h-35l-121 103l-121 -103h-35zM121 270q65 -6 126 -6l112 3q0 81 -32 129q-27 40 -77 40q-36 0 -66 -19t-46 -52q-17 -34 -17 -95z" />
<glyph unicode="&#xeb;" horiz-adv-x="479" d="M26 219q0 78 27 128t88 85q63 37 121 37q84 0 135 -52t51 -138q0 -7 -2 -35q-88 -14 -181 -14h-146q3 -75 28 -119q45 -78 147 -78q32 0 56.5 9t73.5 38l13 -10l-20 -34q-8 -12 -52 -30q-59 -26 -115 -26t-104.5 22t-77.5 62q-42 57 -42 155zM112 592q0 23 14 36.5 t37 13.5q22 0 35.5 -14t13.5 -36t-14 -36t-36 -14t-36 14t-14 36zM121 270q65 -6 126 -6l112 3q0 81 -32 129q-27 40 -77 40q-36 0 -66 -19t-46 -52q-17 -34 -17 -95zM311 592q0 23 14 36.5t37 13.5q22 0 35.5 -14t13.5 -36t-13.5 -36t-36.5 -14t-36.5 14t-13.5 36z" />
<glyph unicode="&#xec;" horiz-adv-x="287" d="M11 643q0 14 9 24t22 10q22 0 55 -33l138 -138h-40l-144 90q-25 16 -32.5 25t-7.5 22zM21 -3v30l46 3q25 1 31 12.5t6 59.5v225q0 50 -7 61.5t-37 11.5h-37v28q78 9 156 41l9 -4v-363q0 -48 6 -59.5t31 -12.5l46 -3v-30q-63 3 -125 3t-125 -3z" />
<glyph unicode="&#xed;" horiz-adv-x="287" d="M21 -3v30l46 3q25 1 31 12.5t6 59.5v225q0 50 -7 61.5t-37 11.5h-37v28q78 9 156 41l9 -4v-363q0 -48 6 -59.5t31 -12.5l46 -3v-30q-63 3 -125 3t-125 -3zM57 506l138 138q33 33 55 33q13 0 22 -10t9 -24q0 -13 -7.5 -22t-32.5 -25l-144 -90h-40z" />
<glyph unicode="&#xee;" horiz-adv-x="287" d="M-10 509l125 167h62l125 -167h-35l-121 103l-121 -103h-35zM21 -3v30l46 3q25 1 31 12.5t6 59.5v225q0 50 -7 61.5t-37 11.5h-37v28q78 9 156 41l9 -4v-363q0 -48 6 -59.5t31 -12.5l46 -3v-30q-63 3 -125 3t-125 -3z" />
<glyph unicode="&#xef;" horiz-adv-x="287" d="M-4 592q0 23 14 36.5t37 13.5q22 0 35.5 -14t13.5 -36t-14 -36t-36 -14t-36 14t-14 36zM21 -3v30l46 3q25 1 31 12.5t6 59.5v225q0 50 -7 61.5t-37 11.5h-37v28q78 9 156 41l9 -4v-363q0 -48 6 -59.5t31 -12.5l46 -3v-30q-63 3 -125 3t-125 -3zM195 592q0 23 14 36.5 t37 13.5q22 0 35.5 -14t13.5 -36t-13.5 -36t-36.5 -14t-36.5 14t-13.5 36z" />
<glyph unicode="&#xf0;" horiz-adv-x="546" d="M32 217q0 111 67 181.5t172 70.5q58 0 107 -25l2 2q-40 88 -98 142l-140 -68l-18 30l136 66q-42 39 -122 80l34 32q93 -56 133 -90l143 70l18 -30l-131 -64q80 -80 124.5 -163t44.5 -189q0 -126 -69.5 -204t-180.5 -78q-100 0 -161 65.5t-61 171.5zM125 252 q0 -105 41 -172t106 -67q48 0 80 32q64 66 64 195q0 93 -39 141q-46 55 -116 55q-65 0 -100.5 -48t-35.5 -136z" />
<glyph unicode="&#xf1;" horiz-adv-x="582" d="M6 -3v30l45 3q25 1 31 12.5t6 59.5v225q0 50 -7 61.5t-37 11.5h-37v28q78 9 156 41l9 -4v-87l76 66q29 25 79 25q167 0 167 -174v-193q0 -48 6 -59.5t31 -12.5l41 -3v-30q-42 3 -83 3q-40 0 -79 -3v284q0 58 -30.5 92.5t-80.5 34.5q-46 0 -86.5 -30t-40.5 -64v-212 q0 -48 6 -59.5t31 -12.5l45 -3v-30q-62 3 -124 3t-124 -3zM126 540q22 100 106 100q28 0 89 -30q33 -15 47 -15q39 0 59 50h29q-3 -44 -34.5 -74.5t-74.5 -30.5q-30 0 -68 19q-53 26 -71 26q-34 0 -53 -45h-29z" />
<glyph unicode="&#xf2;" horiz-adv-x="546" d="M32 217q0 112 68.5 182t178.5 70q103 0 169 -65.5t66 -166.5q0 -112 -74 -184.5t-190 -72.5q-97 0 -157.5 65.5t-60.5 171.5zM125 251q0 -107 45.5 -172.5t118.5 -65.5q61 0 96.5 50.5t35.5 136.5q0 102 -45.5 169t-114.5 67q-66 0 -101 -47.5t-35 -137.5zM144 643 q0 14 9 24t22 10q22 0 55 -33l138 -138h-40l-144 90q-25 16 -32.5 25t-7.5 22z" />
<glyph unicode="&#xf3;" horiz-adv-x="546" d="M32 217q0 112 68.5 182t178.5 70q103 0 169 -65.5t66 -166.5q0 -112 -74 -184.5t-190 -72.5q-97 0 -157.5 65.5t-60.5 171.5zM125 251q0 -107 45.5 -172.5t118.5 -65.5q61 0 96.5 50.5t35.5 136.5q0 102 -45.5 169t-114.5 67q-66 0 -101 -47.5t-35 -137.5zM190 506 l138 138q33 33 55 33q13 0 22 -10t9 -24q0 -13 -7.5 -22t-32.5 -25l-144 -90h-40z" />
<glyph unicode="&#xf4;" horiz-adv-x="546" d="M32 217q0 112 68.5 182t178.5 70q103 0 169 -65.5t66 -166.5q0 -112 -74 -184.5t-190 -72.5q-97 0 -157.5 65.5t-60.5 171.5zM123 509l125 167h62l125 -167h-35l-121 103l-121 -103h-35zM125 251q0 -107 45.5 -172.5t118.5 -65.5q61 0 96.5 50.5t35.5 136.5 q0 102 -45.5 169t-114.5 67q-66 0 -101 -47.5t-35 -137.5z" />
<glyph unicode="&#xf5;" horiz-adv-x="546" d="M32 217q0 112 68.5 182t178.5 70q103 0 169 -65.5t66 -166.5q0 -112 -74 -184.5t-190 -72.5q-97 0 -157.5 65.5t-60.5 171.5zM114 540q22 100 106 100q28 0 89 -30q33 -15 47 -15q39 0 59 50h29q-3 -44 -34.5 -74.5t-74.5 -30.5q-30 0 -68 19q-53 26 -71 26 q-34 0 -53 -45h-29zM125 251q0 -107 45.5 -172.5t118.5 -65.5q61 0 96.5 50.5t35.5 136.5q0 102 -45.5 169t-114.5 67q-66 0 -101 -47.5t-35 -137.5z" />
<glyph unicode="&#xf6;" horiz-adv-x="546" d="M32 217q0 112 68.5 182t178.5 70q103 0 169 -65.5t66 -166.5q0 -112 -74 -184.5t-190 -72.5q-97 0 -157.5 65.5t-60.5 171.5zM125 251q0 -107 45.5 -172.5t118.5 -65.5q61 0 96.5 50.5t35.5 136.5q0 102 -45.5 169t-114.5 67q-66 0 -101 -47.5t-35 -137.5zM129 592 q0 23 14 36.5t37 13.5q22 0 35.5 -14t13.5 -36t-13.5 -36t-36.5 -14t-36.5 14t-13.5 36zM328 592q0 23 14 36.5t37 13.5q22 0 35.5 -14t13.5 -36t-14 -36t-36 -14t-36 14t-14 36z" />
<glyph unicode="&#xf7;" horiz-adv-x="606" d="M40 222v56h526v-56h-526zM245 77q0 24 17 41t41 17t41 -17t17 -41t-17 -41t-41 -17t-41 17t-17 41zM245 423q0 24 17 41t41 17t41 -17t17 -41t-17 -41t-41 -17t-41 17t-17 41z" />
<glyph unicode="&#xf8;" horiz-adv-x="556" d="M16 0l67 64q-46 71 -46 152q0 111 70.5 182t180.5 71q84 0 153 -55l62 60l27 -25l-63 -61q52 -70 52 -150q0 -112 -74 -185t-187 -73q-47 0 -81.5 13t-70.5 44l-62 -60zM130 256q0 -62 20 -126l238 232q-49 74 -123 74q-64 0 -99.5 -47t-35.5 -133zM166 95 q49 -82 127 -82q60 0 96.5 50.5t36.5 133.5q0 60 -22 130z" />
<glyph unicode="&#xf9;" horiz-adv-x="603" d="M18 400v28q78 9 156 41l9 -4v-295q0 -67 21 -91q25 -30 79 -30q57 0 99 42q37 37 37 73v163q0 50 -7 61.5t-37 11.5h-37v28q78 9 156 41l9 -4v-363q0 -48 6 -59.5t31 -12.5l41 -3v-30q-42 3 -83 3t-83 -3q4 63 4 92l-67 -62q-42 -39 -112 -39q-84 0 -117 45 q-24 33 -24 126v168q0 50 -7 61.5t-37 11.5h-37zM166 643q0 14 9 24t22 10q22 0 55 -33l138 -138h-40l-144 90q-25 16 -32.5 25t-7.5 22z" />
<glyph unicode="&#xfa;" horiz-adv-x="603" d="M18 400v28q78 9 156 41l9 -4v-295q0 -67 21 -91q25 -30 79 -30q57 0 99 42q37 37 37 73v163q0 50 -7 61.5t-37 11.5h-37v28q78 9 156 41l9 -4v-363q0 -48 6 -59.5t31 -12.5l41 -3v-30q-42 3 -83 3t-83 -3q4 63 4 92l-67 -62q-42 -39 -112 -39q-84 0 -117 45 q-24 33 -24 126v168q0 50 -7 61.5t-37 11.5h-37zM212 506l138 138q33 33 55 33q13 0 22 -10t9 -24q0 -13 -7.5 -22t-32.5 -25l-144 -90h-40z" />
<glyph unicode="&#xfb;" horiz-adv-x="603" d="M18 400v28q78 9 156 41l9 -4v-295q0 -67 21 -91q25 -30 79 -30q57 0 99 42q37 37 37 73v163q0 50 -7 61.5t-37 11.5h-37v28q78 9 156 41l9 -4v-363q0 -48 6 -59.5t31 -12.5l41 -3v-30q-42 3 -83 3t-83 -3q4 63 4 92l-67 -62q-42 -39 -112 -39q-84 0 -117 45 q-24 33 -24 126v168q0 50 -7 61.5t-37 11.5h-37zM145 509l125 167h62l125 -167h-35l-121 103l-121 -103h-35z" />
<glyph unicode="&#xfc;" horiz-adv-x="603" d="M18 400v28q78 9 156 41l9 -4v-295q0 -67 21 -91q25 -30 79 -30q57 0 99 42q37 37 37 73v163q0 50 -7 61.5t-37 11.5h-37v28q78 9 156 41l9 -4v-363q0 -48 6 -59.5t31 -12.5l41 -3v-30q-42 3 -83 3t-83 -3q4 63 4 92l-67 -62q-42 -39 -112 -39q-84 0 -117 45 q-24 33 -24 126v168q0 50 -7 61.5t-37 11.5h-37zM151 592q0 23 14 36.5t37 13.5q22 0 35.5 -14t13.5 -36t-13.5 -36t-36.5 -14t-36.5 14t-13.5 36zM350 592q0 23 14 36.5t37 13.5q22 0 35.5 -14t13.5 -36t-14 -36t-36 -14t-36 14t-14 36z" />
<glyph unicode="&#xfd;" horiz-adv-x="556" d="M12 431v28q59 -3 116 -3q58 0 116 3v-28l-38 -2q-28 -1 -33 -16.5t9 -48.5l64 -168q26 -66 51 -110l119 292q11 27 3.5 38t-39.5 13l-26 2v28q48 -3 95 -3t95 3v-28l-28 -2q-19 -1 -36.5 -26.5t-47.5 -94.5l-203 -468q-29 -65 -63.5 -94t-84.5 -29q-25 0 -54 15l24 75h13 q26 -23 51 -23q59 0 109 131l23 61l-165 404q-10 26 -21.5 36.5t-30.5 12.5zM210 506l138 138q33 33 55 33q13 0 22 -10t9 -24q0 -13 -7.5 -22t-32.5 -25l-144 -90h-40z" />
<glyph unicode="&#xfe;" horiz-adv-x="601" d="M-2 -251l46 3q25 1 31 12.5t6 59.5v796q0 41 -25 41h-56v28q99 15 156 37l9 -8v-349l55 56q44 44 122 44q84 0 143 -59t59 -143q0 -52 -23.5 -107t-55.5 -78l-100 -72q-31 -22 -82 -22q-55 0 -118 25v-189q0 -48 6 -59.5t31 -12.5l46 -3v-30q-63 3 -125 3t-125 -3v30z M165 98q56 -59 135 -59q73 0 115 51.5t42 139.5q0 81 -41.5 127.5t-112.5 46.5q-76 0 -120 -56q-18 -24 -18 -42v-208z" />
<glyph unicode="&#xff;" horiz-adv-x="556" d="M12 431v28q59 -3 116 -3q58 0 116 3v-28l-38 -2q-28 -1 -33 -16.5t9 -48.5l64 -168q26 -66 51 -110l119 292q11 27 3.5 38t-39.5 13l-26 2v28q48 -3 95 -3t95 3v-28l-28 -2q-19 -1 -36.5 -26.5t-47.5 -94.5l-203 -468q-29 -65 -63.5 -94t-84.5 -29q-25 0 -54 15l24 75h13 q26 -23 51 -23q59 0 109 131l23 61l-165 404q-10 26 -21.5 36.5t-30.5 12.5zM149 592q0 23 14 36.5t37 13.5q22 0 35.5 -14t13.5 -36t-13.5 -36t-36.5 -14t-36.5 14t-13.5 36zM348 592q0 23 14 36.5t37 13.5q22 0 35.5 -14t13.5 -36t-14 -36t-36 -14t-36 14t-14 36z" />
<glyph unicode="&#x152;" horiz-adv-x="998" d="M22 340q0 165 104.5 267t272.5 102q34 0 110 -10t79 -10l237 3l121 -3q-16 -64 -16 -152h-35v65q0 18 -4.5 24t-22.5 10q-54 14 -141 14q-78 0 -113 -8v-267q64 -4 151 -4q36 0 52.5 7t18.5 31l5 52h30q-3 -59 -3 -116q0 -55 3 -111h-30l-5 58q-2 24 -18.5 31t-52.5 7 h-54q-58 0 -97 -3v-280q39 -8 97 -8q144 0 177 12q23 9 34 79l5 34h35q-16 -83 -16 -164l-160 -3l-107 1q-65 1 -164 -8.5t-124 -9.5q-165 0 -267 99t-102 261zM122 370q0 -152 73.5 -249t189.5 -97q35 0 72.5 9.5t56.5 22.5q5 34 5 83v399q0 49 -5 83q-50 44 -133 44 q-122 0 -190.5 -78t-68.5 -217z" />
<glyph unicode="&#x153;" horiz-adv-x="827" d="M32 230q0 107 66 173t174 66q53 0 91.5 -17t81.5 -59q49 44 84.5 60t81.5 16q86 0 137.5 -51.5t51.5 -138.5q0 -7 -2 -35q-88 -14 -181 -14h-146q3 -75 28 -119q44 -78 148 -78q33 0 59.5 9.5t71.5 37.5l14 -10l-20 -34q-7 -10 -50 -29q-65 -27 -115 -27 q-51 0 -89.5 19.5t-82.5 67.5q-46 -48 -85.5 -67.5t-91.5 -19.5q-99 0 -162.5 70t-63.5 180zM125 260q0 -109 43 -178t111 -69q59 0 91.5 49.5t32.5 140.5q0 108 -40 170.5t-110 62.5q-128 0 -128 -176zM473 270q76 -7 127 -6l117 3q0 67 -23 110q-32 59 -86 59 q-31 0 -59.5 -14t-45.5 -37q-27 -38 -30 -115z" />
<glyph unicode="&#x178;" horiz-adv-x="667" d="M9 651v29l120 25q14 0 40.5 -30t50.5 -73l143 -261l103 163q57 90 108 190h80v-15q-96 -115 -188 -253q-44 -66 -58 -101t-14 -76v-129q0 -59 8 -73.5t43 -16.5l48 -3v-30q-73 3 -147 3q-72 0 -146 -3v30l48 3q35 2 43 16.5t8 73.5v142q0 25 -9 40l-124 216 q-32 55 -67.5 91t-60.5 39zM198 819q0 23 14 36.5t37 13.5q22 0 35.5 -14t13.5 -36q0 -23 -14 -36.5t-36 -13.5t-36 13.5t-14 36.5zM397 819q0 23 14 36.5t37 13.5q22 0 35.5 -14t13.5 -36q0 -23 -13.5 -36.5t-36.5 -13.5t-36.5 13.5t-13.5 36.5z" />
<glyph unicode="&#x2c6;" horiz-adv-x="333" d="M11 509l125 167h62l125 -167h-35l-121 103l-121 -103h-35z" />
<glyph unicode="&#x2dc;" horiz-adv-x="333" d="M2 540q22 100 106 100q28 0 89 -30q33 -15 47 -15q39 0 59 50h29q-3 -44 -34.5 -74.5t-74.5 -30.5q-30 0 -68 19q-53 26 -71 26q-34 0 -53 -45h-29z" />
<glyph unicode="&#x2000;" horiz-adv-x="469" />
<glyph unicode="&#x2001;" horiz-adv-x="939" />
<glyph unicode="&#x2002;" horiz-adv-x="469" />
<glyph unicode="&#x2003;" horiz-adv-x="939" />
<glyph unicode="&#x2004;" horiz-adv-x="313" />
<glyph unicode="&#x2005;" horiz-adv-x="234" />
<glyph unicode="&#x2006;" horiz-adv-x="156" />
<glyph unicode="&#x2007;" horiz-adv-x="156" />
<glyph unicode="&#x2008;" horiz-adv-x="117" />
<glyph unicode="&#x2009;" horiz-adv-x="187" />
<glyph unicode="&#x200a;" horiz-adv-x="52" />
<glyph unicode="&#x2010;" horiz-adv-x="333" d="M17 220l27 67h263l5 -5l-30 -67h-260z" />
<glyph unicode="&#x2011;" horiz-adv-x="333" d="M17 220l27 67h263l5 -5l-30 -67h-260z" />
<glyph unicode="&#x2012;" horiz-adv-x="333" d="M17 220l27 67h263l5 -5l-30 -67h-260z" />
<glyph unicode="&#x2013;" d="M0 219v58h500v-58h-500z" />
<glyph unicode="&#x2014;" horiz-adv-x="1000" d="M0 219v58h1000v-58h-1000z" />
<glyph unicode="&#x2018;" horiz-adv-x="278" d="M45 459q49 123 129 226l44 24l15 -10q-69 -110 -78 -223l-97 -30z" />
<glyph unicode="&#x2019;" horiz-adv-x="278" d="M45 456q70 112 78 223l97 30l13 -13q-49 -123 -129 -226l-44 -24z" />
<glyph unicode="&#x201a;" horiz-adv-x="278" d="M22 -143q70 112 78 223l97 30l13 -13q-49 -123 -129 -226l-44 -24z" />
<glyph unicode="&#x201c;" d="M51 459q49 123 129 226l44 24l15 -10q-69 -110 -78 -223l-97 -30zM261 459q49 123 129 226l44 24l15 -10q-69 -110 -78 -223l-97 -30z" />
<glyph unicode="&#x201d;" d="M51 456q70 112 78 223l97 30l13 -13q-49 -123 -129 -226l-44 -24zM261 456q70 112 78 223l97 30l13 -13q-49 -123 -129 -226l-44 -24z" />
<glyph unicode="&#x201e;" d="M51 -143q70 112 78 223l97 30l13 -13q-49 -123 -129 -226l-44 -24zM261 -143q70 112 78 223l97 30l13 -13q-49 -123 -129 -226l-44 -24z" />
<glyph unicode="&#x2022;" horiz-adv-x="606" d="M131 347q0 68 51 118.5t121 50.5q71 0 121.5 -51t50.5 -121q0 -71 -51 -121.5t-122 -50.5q-70 0 -120.5 51.5t-50.5 123.5z" />
<glyph unicode="&#x2026;" horiz-adv-x="1000" d="M109 53q0 23 17.5 40.5t39.5 17.5q23 0 41 -17.5t18 -40.5t-18 -40.5t-42 -17.5q-22 0 -39 17.5t-17 40.5zM442 53q0 23 17.5 40.5t39.5 17.5q23 0 41 -17.5t18 -40.5t-18 -40.5t-42 -17.5q-22 0 -39 17.5t-17 40.5zM775 53q0 23 17.5 40.5t39.5 17.5q23 0 41 -17.5 t18 -40.5t-18 -40.5t-42 -17.5q-22 0 -39 17.5t-17 40.5z" />
<glyph unicode="&#x202f;" horiz-adv-x="187" />
<glyph unicode="&#x2039;" horiz-adv-x="331" d="M66 242v12l176 174l23 -13l-119 -167l119 -162l-23 -15z" />
<glyph unicode="&#x203a;" horiz-adv-x="331" d="M66 86l119 162l-119 167l23 13l176 -174v-12l-176 -171z" />
<glyph unicode="&#x205f;" horiz-adv-x="234" />
<glyph unicode="&#x20ac;" d="M-2 274l18 51q25 -5 57 -5v56q-61 0 -74 -1l18 51q21 -6 62 -6q16 113 80.5 191t177.5 78q108 0 164 -49q-1 -6 -5.5 -32t-7.5 -51t-3 -43h-31l-2 90q-28 50 -120 50q-60 0 -108 -64t-62 -170h171q51 0 89 6l-18 -52l-247 2q-1 -14 -1 -56q157 0 230 5l-18 -51l-210 2 q11 -119 60 -190t114 -71q86 0 118 46l3 94h32q0 -18 3 -43t7.5 -51t5.5 -32q-56 -49 -164 -49q-64 0 -113.5 25.5t-79.5 69.5t-47 94t-22 107q-49 0 -77 -2z" />
<glyph unicode="&#x2122;" horiz-adv-x="979" d="M40 691l121 -1h91l129 1q-4 -40 -4 -90h-26l-3 44q0 13 -18 13h-84q-1 -16 -1 -47v-216q0 -41 23 -42l29 -1v-24q-58 2 -87 2q-28 0 -86 -2v24l30 1q23 1 23 42v216q0 15 -2 47h-83q-19 0 -19 -13l-3 -44h-26q1 38 -4 90zM410 328v24l28 1q25 1 25 42v229q0 41 -25 42 l-28 2v24q19 -2 57 -2q40 0 60 2l148 -278l146 278q20 -2 59 -2q37 0 55 2v-24l-26 -2q-23 -1 -23 -42v-229q0 -41 23 -42l30 -1v-24q-60 2 -89 2q-26 0 -76 -2v24l21 1q23 3 23 42v214q-24 -42 -66 -122.5t-51 -96.5q-7 -12 -16.5 -33.5t-14.5 -30.5h-22l-150 282v-213 q0 -41 25 -42l27 -1v-24q-46 2 -71 2q-23 0 -69 -2z" />
<glyph unicode="&#xe000;" horiz-adv-x="470" d="M0 0v470h470v-470h-470z" />
</font>
</defs>
</svg>
